&title=ウニクラゲ
&artist=海茶 feat. ずんだもん、初音ミク
&first=0
&des=Sakurage
&clock_count=4
&lv_5=13+
&inote_5=(190.00)
||Sakurago
{8},,,,,,,,
{8},,,,,,,,
{8}3/7,,5-7v8[16:5]/4v3-1b[16:5],,,,,,
{8}2/5,2,3/6,3,4/8-4[8:1],,Cf,,
{16}2/6,,3,4,3,,8,,
1h[8:1]/7h[8:1],,,,3h[8:1]/8h[8:1],,,,
{8}1/6-1[8:1],,3,3,6<1[8:1],2,3,4,
{8}5-2[8:1]/6-1[8:1],,5/6,,3/4-8[8:1],1x,1x,,
{8}3h[8:1]/7h[8:1],,1h[8:1]/5h[8:1],,{16}7h[8:2]/3,,E3,E2,E1,,,,
{16}2/6,,7,5,7,,1,,
2h[8:1]/8h[8:1],,,,4h[8:1]/5h[8:1],,,,
{8}8/3-8[8:1],,7,7,3-5[8:1],5,6,7,
{8}8-5[8:1]*-6[8:1]/4,,8-2[8:1]*-3[8:1],,8,,,5,
{16}6/4,,7,,{24}2x,3x,4x,{16}5x,,
4x-1[8:1]/6x-1[8:1],,,,4b/6b,,,,
{16}7/3,,6,5,6,,1,,
8h[8:1]/2h[8:1],,,,6h[8:1]/1h[8:1],,,,
{8}8/3-8[8:1],,6,6,3>8[8:1],7,6,5,
{8}4-8[8:1]/3-7[8:1],,4/3,,6/5-1[8:1],8x,8x,,
{8}6h[8:1]/2h[8:1],,8h[8:1]/4h[8:1],,{16}2h[8:2]/6,,E7,E8,E1,,,,
{16}7/3,,2,4,2,,8,,
7h[8:1]/1h[8:1],,,,5h[8:1]/4h[8:1],,,,
{8}1/6-1[8:1],,2,2,6-4[8:1],4,3,2,
{8}5v8[8:1]/1v4[8:1],,1/5,,3/7,,,4,
{16}3/5,,2,,{24}7x,6x,5x,{16}4x,,35,,,,2/6,,,,
{8}8-6[8:1],,3,3,4-2[8:1],,7,7,
{8}8-6[8:1],,3,3,4qq5[8:3],,6h[4:1],,
{8},7,7>2[8:1],,5s1[8:2],,1,,
{8}7-3[8:1],7,1-5[8:1],1,C,,4x/6x,,
{8}1-3[8:1],,6,6,5-7[8:1],,2,2,
{8}1-3[8:1],,6,6,5pp4[8:3],,3h[4:1],,
{8},2,2h[8:1],,3h[8:1]/5h[8:1],,6h[8:1],,
{8}8<5[8:1],8,4>1[8:1],4,C,,2xb/7xb,,
{8}5-7[8:1]/4,,3,3,4-2[8:1],,7-3[8:1],,
{8}1v6[8:1]*v4[8:1],,,,3x/7x,,1x/5x,,
{8}6qq4[16:3],,2,2p5[16:3],,8,8>4[4:1],,
{8}4<8[4:1],,8-4[32:5],,2,,3x/5x,,
{8}6,2,2,5,46,,3>1[8:1]/7>1[8:1],,
{8}3bv5[32:5]/7bv5[32:5],,3b/7b,,,{16}4,5,{8}4,,
{8}3xp6[16:3]/6x,,6xq3[16:3]*<3[16:3],,,,4xp5[4:1]/5x,,
{8}5xq4[4:1]*<4[4:1],,,,E5,,Cf/E3/E7,,
{8}1x>4qq5[4:3]/8h[4:1],,,,6h[4:1],,,,
{8}7qq5<3[4:3],,,,B2/B3/E3,,,,
{8}4-1[8:1]*-1[8:1],,4-7[8:1]*-7[8:1],,,,,,
{8}4-1[8:1]*-1[8:1],,4-7[8:1]*-7[8:1],,,,,,
{8}8<5pp4[4:3]/1h[4:1],,,,3h[4:1],,,,
{8}2pp4>6[4:3],,,,B7/B6/E7,,,,
{8}5,5,{16}4,6,4,6,3,7,3,7,2,8,2,8,
{8}3V14[16:5]*pp4[16:5],,,,,,2b/7b,,
{8}8-6[32:3],1,2-6b[8:1]*-5[8:1],1,,,7-5[32:3],8,
{8}1-3[32:3],8,7-3b[8:1]*-4[8:1],8,,,2-4[8:1]/5-1[8:1],,
{8}25,,5pp5[16:5]*qq5[16:5],,5,,,,
{8}6-4[8:1],2-8[8:1],6,2,6h[4:1],E8,E1,E2,
{8}7-3[8:1],7,4<2[8:2],4,1,,4-1[8:1],,
{8}2-6[8:1],2,8-3[8:1]*-5[8:1],8,,,26,17,
{8}8>3[8:1]*<5[8:1],,8-4[8:1],,82,2-6b[8:1],,26`Cf,
{8},7x/5x,8,12,{16}4,5,{8}4,27,,
{8}1-3[32:3],8,7-3b[8:1]*-4[8:1],8,,,2-4[32:3],1,
{8}8-6[32:3],1,2-6b[8:1]*-5[8:1],1,,,7-5[8:1]/4-8[8:1],,
{8}47,,2-4[8:1]/4-8[8:1],,2-6[8:1]/4,,2,,
{8}7-3[8:1],1-5[8:1],7,1,8w4[8:1],,8,,
{8}6-4[8:1],,2-6[8:1]/6,,8-4[8:1]/2,,3-1[8:1]/8,,
{8}5-7[8:1]/3,,2-6[8:1]/5,,8-5[8:1]*-3[8:1]/2,,8,,
{8}2-5[8:1]/6-1[8:1],,26,,48,3h[8:1]/7h[8:1],,46,
{8}5,37,5,28,1w5[8:1],,1b`Cf,,
{16}3/7,,4,4,4,,6,,
1/7,,8,,3/5,,4,,
{8}2/6-2[8:1],,1,1,6-2[8:1],2,3,4,
{8}1-6[8:1]/5-2[8:1],,1/5,,3/4-8[8:1],1x,1x,,
{8}4/7,6,2/5,1,{16}7/3,,2,1,3/8,,,,
{16}6/2,,5,5,5,,3,,
8/2,,1,,6/4,,5,,
{8}7/3-7[8:1],,8,8,3,5,3,7,
{8}8-4[8:1]/1-3[8:1],,1-5[8:1]/8-6[8:1],,18,,,3/4,
{16}2/5,,6,,{24}E3,B3,B4,{16}E5,,
Ch[8:2],,,,,,,,
||Sakurago
(140.00)
{8}7-5[8:1]/6h[8:2],,,,2-4[8:1]/3h[8:2],,,,
{16}7,,,7,5,,,5,
B4/B5/Cf,,,,,,,,
{8}6<8[8:1]/7h[8:2],,,,3>1[8:1]/2h[8:2],,,,
{16}5/6,,,3/4,2/5,,,1/8,
2/7,,,,,,,,
{8}6-1[8:1]/5h[8:2],,,,3-8[8:1]/4h[8:2],,,,
{16}1/5,,,6/7,5/8,,,,
B2/B3/B6/B7/Cf,,,,,,,,
{8}1>5[8:2]/7,,5<1[8:2],,1,,,6,
{16}2/7,,4/5,,3pp5[8:2]/6,,3/6,,
,,,,,,,,
(190.00)
{8}7-4[8:1],,1-4[8:1],,8-4[8:1],,2,,
{8}3>8[8:1],,3<6[8:1],,3-7[8:1],,,,
{8},4/5,4/5,4/5,4-7[8:1]/5-7[8:1],,4-1[8:1]/5-1[8:1],,
{8}5/4q5[8:4]*>5[8:4],,,,,,,,
{8}7<4[8:1],,2>4[8:1],,6qq4[16:3],,,,
{8}1bx,1bx,5bx,5bx,4-8[8:1]/6-2[8:1],,4/6,,
{8},3V17[8:2],5h[8:1],,,,,6,
{8}2/6,3/7,2/6,3/7z3[16:3],,,,,
{8}2-7[8:1],2,6qq4[4:1]*qq4[4:1],,B5,,B1,,
{8}2-7[8:1],2,6qq4[4:1]*qq4[4:1],,B5,,B1,,
{8}2-7[8:1],2,6qq4[4:1]*qq4[4:1],,B5,,B1,,
{8}2,2,2-7b[8:1]/3-6[8:1],,,,,,
{8}2-7[8:1],2,6qq4[4:1]*qq4[4:1],,B5,,B1,,
{8}2-7[8:1],2,6qq4[4:1]*qq4[4:1],,B5/A5,,B1/A1,,
{16}3,5,3,5,2,6,2,6,1,7,1,7,8h[16:1],,8h[16:1],,
{8}8-3-6[8:3]*-5-2[8:3],,,,,,E7/Cf/B7/B1/E2,,
{8}8x<5[8:1],1,2q6b[8:1]*v5[8:1],1,,,7<4[8:1],8,
{8}1>4[8:1],8,7p3b[8:1]*v4[8:1],8,,,2>5[8:1]/5<8[8:1],,
{8}25,,4qq4[16:5]*pp4[16:5],,4,,,,
{8}2-8[8:1],6-4[8:1],2,6,2h[4:1],B7,C,B3,
{8}2-6[8:1],2,5-3-1-7[32:9],5,8,,5-8[8:1],,
{8}7p3[8:1],7,1-6[8:1]*-4[8:1],1,,,73,82,
{8}1-7<6[8:1]*-3<4[8:1],,1-5[8:1],,17,7-3b[8:1],,73`Cf,
{8},2x/4x,1,87,{16}5,4,{8}5,72,,
{8}1>4[8:1],8,7p3b[8:1]*v4[8:1],8,,,2>5[8:1],1,
{8}8<5[8:1],1,2q6b[8:1]*v5[8:1],1,,,8-4[8:1]/4-2[8:1],,
{8}48,,7-5[8:1]/5-1[8:1],,7-3[8:1]/5,,7,,
{8}2-6[8:1],8p4[8:1],2,8,1w5[8:1],,1,,
{8}3-5[8:1],,7-3[8:1]/3,,1q5[8:1]/7,,6-2[8:1]/1,,
{8}4p8[8:1]/6,,7p3[8:1]/4,,1-4[8:1]*-6[8:1]/7,,1,,
{8}7-2[8:1],7,3-6[8:1],3,8<6qq5[48:20],8>2pp3[48:14],,,
{8},,,62,8w4[8:1],,8b`Cf,,
{8}2x-8[8:1],,3-7[8:1],,2-8[8:1],,C,,
{8}3h[8:1]/6h[8:1],,3h[8:1]/6h[8:1],,4-2[8:1]/5-7[8:1],,45,,
{8}1-5[8:1],8,7<4[8:1],8,1>4[8:1],8,7-3[8:1],8,
{8}2-6[8:1],1,8-3b[8:1]*-5b[8:1],1,,,4x,,
{8}2h[8:1]/6h[8:1],,8h[8:1]/4h[8:1],,2h[8:1]/6h[8:1],,C,,
{8}7h[8:1]/3h[8:1],,1h[8:1]/5h[8:1],,7-1[8:1]/3-5[8:1],,73,,
{8}8-4[8:1],1,2>5[8:1],1,8<5[8:1],1,2-6[8:1],1,
{8}7-3[8:1],8,1-6b[8:1]*-4b[8:1],8,,,5x,,
{8}2-8[8:1],,3-7[8:1],,2-8[8:1],,C,,
{8}3h[8:1]/6h[8:1],,3h[8:1]/6h[8:1],,4-2[8:1]/5-7[8:1],,45,,
{8}1-5[8:1],8,7<4[8:1],8,1>4[8:1],8,7p3[8:1],8,
{8}2q6[8:1],1,8>3b[8:1]*<5b[8:1],1,,,4x,,
{8}6-1[8:1],6,2-5[8:1],2,7-4[8:1],7,3-8[8:1],3,
{8}7-3[8:1],7,1-5[8:1],1,8w4[8:1],8,,,
{8}2b-8b[8:1]/6b-4[8:1],,2bv5b[8:1]/6b-1[8:1],,2b/6b,,,3b/7b,
{8}5,2b/6b,4,4b/5b,7b-3[8:1]/2b-6b[8:1],,`Cf,,
{8},,,,,,,,
E
