&title=恋の宅配便
&artist=瀬名航 feat.AZKi
&first=0.725
&des=Ragna
&wholebpm=172
&demo_seek=66.4
&demo_len=39.3
&des_5=Ragna
&lv_5=13
&inote_5=(172){8}
2h[4:1],6h[4:1],,,3h[4:1]/5h[4:1],,,,
7h[4:1],3h[4:1],,,6h[4:1]/4h[8:1],,,,
3h[4:1],5h[4:1],,,2,3,4,5,
6h[4:1],4h[4:1],,,7h[8:1]/3h[8:1],,73,,
2h[4:1],5h[4:1],,,3h[4:1]/4h[4:1],,,,
7h[4:1],4h[4:1],,,6h[4:1]/5h[8:1],,,,
3h[4:1],4h[4:1],,,2,3,4,5,
6h[4:1],5h[4:1],,,7h[8:1]/4h[8:1],,74,,
3V52[32:9]/5,,6,6h[8:3],,,3,,
2-5-1[32:9]/5,,6,6h[8:3],,,2,,
1-5-8[32:9]/5,,6,6h[8:3],,,1,,
8-5-7[32:9]/5,,6,6h[8:3],,,8,,
1V72[32:9]/7,,6,6h[8:3],,,1,,
2-7-3[32:9]/7,,6,6h[8:3],,,2,,
3-7-4[32:9]/7,,6,6h[8:3],,,3,,
4-7-5[32:9]/7,,6,6h[8:3],,,4,,
3-5[8:1]/5,,6,6,6xh[4:1]/5x-2[8:1],,,,
2-5[8:1]/5,,6,6,6xh[4:1]/5x-1[8:1],,,,
1-5[8:1]/5,,6,6,6xh[4:1]/5x-8[8:1],,,,
8-5[8:1]/5,,6,6,6xh[4:1]/5x^2[8:1],,,,
1^4[8:1]/4,,5,6,7xh[4:1]/5x-1[8:1],,,,
2^5[8:1]/5,,6,7,8x-6[8:1]/6x-4[8:1],,6V84[32:9],,
4x,,,,2x-4[8:1]/4x-6[8:1],,4V26[32:9],,
6x,,,,8x-6[8:1]*-2[8:1]/6x,,8,,
3/5h[4:1],,4,7/5h[4:1],,6,2/5h[4:1],,
4,8/5h[4:1],,6,1v4[8:1]/5-8[8:1],,15,,
3V51[4:1],,1V75[4:1],8,7h[4:1],,,,
45,3,1s5[32:9]/2,8,1/7h[4:1],,,,
6/4h[4:1],,5,2/4h[4:1],,3,7/4h[4:1],,
5,1/4h[4:1],,3,8-5[8:1]/4v1[8:1],,84,,
2>6[4:1],,6,,7V53[4:1],,3,,1s5[4:1],,,,
6,7,4,3,5-8[8:1],,2,2,
2-6[8:1],,7pp4[8:3],,4,,,,
3,2,5,6,1-5[8:1],,7,7,
7^2[8:1],,4q5[8:3],,8,,,,
7,6,4,3,5-8[8:1],,2,2,
2V86[4:1],,6<4[8:3],,4,,,,
5,5,4h[4:1],,7-3[8:1],,2,2,
2>6[4:1],,6-4-2-8[8:3],,8,,,7,
6,5,4,3,2-6[8:1],,6x-2[8:1],,
2x-6[8:1],,6x-2[8:1],,8xv3[8:1]*v5[8:1],,,,
6,6,2,2,8-4[8:1],,4x-8[8:1],,
8x-4[8:1],,4x-8[8:1],,1x-7[8:1]*-3[8:1],,,,
4,4,5,5,1-6[8:1],,6x-1[8:1],,
1x-6[8:1],,6x-1[8:1],,8x^5[8:1]*^3[8:1],,,,
4,4,7,7,18,{16}2,6,2,6,3,7,
3,7,5,6,4,5,{8}3,2b/6b,2b/6b,,,
7b/3b,7b/3b,,,45,3,45,6,
8-4[8:1]/7,1,2v5[8:1]/8v5[8:1],,28,,3x/4x,3,
65,6,34,2,18,7,18,2,
3/5-1[8:1],6,7-5[8:1]*-3[8:1]/5,,7,,2x/4x,1-5[8:1],
8-4[8:1],1,8,,3qq4[32:9],,5,6,
7pp6[32:9],,5,4,3pp2[32:9],,5,6,
7h[4:1],,1,26,3/5h[4:1],,4,3/6h[4:1],
,5,74,83,1/2h[4:1],,4,1h[4:1]/5,
,8,27,,34,2,65,7,
8q4[8:1]/1,,1p5[8:1]/8^6[8:1],,18,,3x/4x,3,
65,6,34,2,18,7,18,2,
3/4-8[8:1],5,6pp5[32:9]/4qq5[32:9],,6b/4b,,,,
6x/4x,,8-4[8:1]/7,,8b/7b-5[8:1],,4x-2[8:1]/7,,
5x-1[8:1]/4,,2x-4[8:1]/5,,2/1x-5[8:1],,1/4xw8[8:1],,
4,,2,5,4h[8:3],,,6,
7,8,1,2,3h[8:3]/5h[8:3],,,,
3-5[8:1]/5,,,,6,,6,,
6,5xh[8:1],6,,6,,6,,
6,4xh[8:1],6,,6,,6,,
6,3xh[8:1],6,,45,45,36,36,
27,27,18,18,7V53[32:7]/2,,3,,
2,1,8,7,3qq1[8:1]/6pp8[8:1],,3b/6b,,
,27,,36,3V17[32:7]/6,,7,,
6,5,4,3,2pp3[16:3]/7qq6[16:3],,2b/7b,,
,27,,18,1s5[32:9]/8,,5,,
6,7,3,2,1q3[32:13]/8qq3[32:13],,1b/8b,,
,,,,1/4h[4:1],,3,2/5h[4:1],
,4,3/6h[4:1],,5,7h[4:1]/4,,6,
8^5[8:1]/5^2[8:1],,85,,1s5[4:1],,5<2[32:9],6,
7h[4:1],,,,35,4,7/5z1[32:9],6,
4h[4:1]/5,,,,8/5h[4:1],,6,4h[4:1]/7,
,5,3h[4:1]/6,,4,2h[4:1]/5,,3,
1^4[8:1]/4^7[8:1],,14,,8<4[4:1],,4,,
1V35[4:1],,5,,8qq5[16:7]*pp3[16:7],,,,
,,,,6,5,4,3^6[8:15],{1}
,,E
