&title=少女綺想曲 ~Dream Battle~
&artist=ZUN
&first=0
&des=Smokevergreen 2025.8.19
&lv_5=14
&inote_5=(160)
{1},
{16}4w8[8:11],,,,,,,,,,,,,,,,
{16},,,,,,,,,,,,2b/6b,,,,
{16}46,,,,37,,,,3h[8:1]/8h[8:1],,,3h[8:1]/8h[8:1],,,3h[8:1]/8h[8:1],,
{16},,27,,27,,,,4h[8:1]/6h[8:1],,,46,,,5,5,
{16}5-2[8:1]*-8[8:1],,,,5,,,,3h[8:1]/7h[8:1],,,3h[8:1]/7h[8:1],,,3h[8:1]/7h[8:1],,
{16},,48,,4v1[8:1]/8v5[8:1],,,,48,,,26,,,26,,
{16}53,,,,62,,,,6h[8:1]/1h[8:1],,,66h[8:1]/1h[8:1],,,6h[8:1]/1h[8:1],,
{16},,72,,72,,,,5h[8:1]/3h[8:1],,,53,,,4,4,
{16}4v1[8:1]*v7[8:1],,,,4,,,,6h[8:1]/2h[8:1],,,6h[8:1]/2h[8:1],,,6h[8:1]/2h[8:1],,
{16},,1/5,,8-4[8:1]/4-8[8:1],,,,84,,,73,,,73,,
{16}26,,3,,47,,8,,38,,,2,1,,1/2,,
{16}8/3,,1,,28,,2,,36,,,5,4,,5,4,
{16}5<8[8:1],,6,,5/4,,3,,4,,8,4,,,8/4,,
{16}7/5,,6/4,,6<1[8:1]/4>1[8:1],,,,6b/4b,,,2/8,,,6,,
{16}73,,6,,52,,1,,61,,,7,8,,7/8,,
{16}6/1,,8,,71,,7,,63,,,4,5,,3,6,
{16}4>1[8:1],,3,,4/5,,6,,5,,1,5,,,1/5,,
{16}2/6,,7/3,,4>1[8:1]/8<5[8:1],,,,8/4,,,2/6,,,{24}6/2,7/3,8/4,
{1}5b>5[4:13]/1b<1[4:13],
{1},
{1},
{8},,,,,,8,1,
{8}2-4[12:1],1,2/8,7,2-6[8:1],1,2/8,7,
{8}2-4[12:1],1,2/8,{16}6,7,8,,1/3,,2/4,,3/5,,
{8}6-4[12:1],4,6/3,2,6v3[8:1],4,6/3,2,
{16}61,,8,6,1,7,2,8,3,1,2,4,3,5,4,6,
{8}2-4[12:1],1,2/8,7,2-6[8:1],1,2/8,7,
{8}2>5[8:1],1,2/8,{16}6,7,8,,1/2,,3/4,,7/8,,
{8}5/6,7<4[8:1],8,7/1,2,3>8[8:1],4,3/5,
{16}5,6,7,8,4,3,2,1,8,7,6,5,8,7,6,5,
{8}2q6[8:1],1,7/2,8,1<6[8:1],2,1/3,4,
{8}5V71[8:1],4,2/5,{16}3,4,5,,7/8,,6/1,,2/5,,
{8}3-8[8:1],7-4[8:1],3,7,8-3[8:1],4-7[8:1],8,4,
{16}3,6,2,7,1,6,2,5,3,4,2,6,4,7,3,8,
{8}2V46[8:1],1,7/2,8,1p5[8:1],2,1/3,4,
{8}5V74[16:3],4,2/5,{16}3,2,1,,7/8,,2/1,,4/5,,
{8}8-4[8:1]/2,7/1,6/8,5,1-5[8:1]/7,2/8,3/1,4,
{16}1b,2,3,4,8b,7,6,5,
{32}1b,2,3,4,5,6,7,8,1b/5b,,,,,,,,
{16}2,1,2,1,2,,18,,7,8,7,8,7,,56,,
{16}3,4,3,4,3,,45,,6,5,6,5,7,4,8,3,
{8}1>4[8:1],2,1/8,7,6V42[8:1],7,8/6,1,
{16}2/1,,3,7,4,6,3,5,2,1,3,7,8,6,1,5,
{16}3,4,2,4,3,,24,,6,5,7,5,6,,57,,
{16}2,1,3,1,2,,31,,7,8,6,8,7,8,6,8,
{8}7V51[16:3],8,1/7,2,2V48[16:3],1,8/2,7,
{16}7/2,,6,2,5,3,6,4,7,8,6,4,{24}5,4,3,2,1,8,
{16}7,5,3,4,1,,26,,8,2,6,5,8,,37,,
{16}5,3,7,8,5,,62,,4,6,2,1,4,,73,,
{8}8-3[8:1]/4,3,2/8,1,4/8-5[8:1],5,6/8,7,
{8}8qq5[8:3]/4qq1[8:3],,,,,,4/8,,
{16}3,5,4,4,4,,35,,4,6,5,5,5,,46,,
{16}2,4,3,3,3,,24,,7,5,6,6,6,,75,,
{4}8-4[8:1]/1,8/1-5[8:1],1/2-6[8:1],2/3-7[8:1],
{4}3/4-8[8:1],4>1[8:1]*<7[8:1],4w8[8:1],4b,
{16}2,8,2,8,1,7,1,7,2,5,2,5,3,4,3,4,
{16}3,6,4,5,3,6,4,5,3,6,4,5,3,6,4,5,
{16}3,6,5,6,2,6,5,6,4,6,5,6,1,6,5,6,
{16}8,7,1,6,2,5,3,4,2,1,3,8,4,7,5,6,
{16}3,4,3,2,,6,5,7,5,8,5,,3,4,2,5,
{16}1,6,8,7,68,,15,,24,,35,,46,,57,,
{16}4,8,3,7,2,6,1,5,2,6,3,7,4,8,5,1,
{16}2,1,5,6,1,8,4,5,3b,6,2b,6,1b,6,8b,6,
{16}7>6[8:21],,,,6h[1:0],,,,6,,,6,,,6,,
{16},,7h[1:0],,7,,,,7,,,7,,,8h[1:0],,
{16}8,,,,8,,,,8,,,8,,,1h[1:0],,
{16},,2/6,,2v5[8:1]/6-1[8:1],,,,2<7[8:1]/6>3[8:1],,,,,,,,
{16}3,4,3,2,3,,6,5,6,7,6,,1,8,2,7,
{16}3,6,4,5,2,6,3,7,4,8,3,7,2,6,1,5,
{16}2,4,2,4,3,5,3,5,{24}6,7,8,1,2,3,6,7,8,1,2,3,
{16}7,5,7,5,6,4,6,4,{24}3,2,1,8,7,6,3,2,1,8,7,6,
{16}1b,4,2,5,3,4,2,5,1,6,3,8,2,7,1,5,
{16}3,7,2,1,3,8,4,6,3,5,2,4,1,8,2,7,
{16}3,8,4,7,2,5,1,6,8,7,5,6,4,7,3,6,
{16}2,4,1,5,7,5,8,4,1,2,8,3,7,4,6,3,
{16}5,5,4,6,3,7,2,8,{24}1,2,3,5,6,7,1,2,3,5,6,7,
{16}4,4,5,3,6,2,7,1,{24}2,3,4,6,7,8,2,3,4,6,7,8,
{16}3,3,2,4,1,5,8,6,{24}1,2,3,5,6,7,2,3,4,6,7,8,
{32}3b,4,5,6,7,8,1,2,3/7,4,5,6,7,8,1,2,3/7,4,5,6,7,8,1,2,3/7,4,5,6,7,8,1,2,
{1}3b/7bw3[4:7],
