&title=XODUS
&artist=DJ Myosuke & Gram
&first=-0.01
&des=低bpm哈哈
&clock_count=4
&lv_5=14+
&inote_5=(101)
{2},,
{32}1h[16:3],,,,,,8h[16:3],,,,,,
,,3,3,5,5,4,4,6,6,2,2,7,7,1,8,2,7,3,6,
4,,,56,,,8,,,37,,,26,,1,1,8h[32:1]
,,4,5,3h[32:1],,7,8,6h[32:1],,2,1,3,8,4,,
5/6,,,2h[32:1]/8h[32:1],,,3h[32:1]/4h[32:1],,,1h[32:1]/7h[32:1],,,6/4,,
3,4,2h[32:1],,7,8,6h[32:1],,
{64}3,,3,,8,7,6,,2,,2,,7,6,5,,1,,1,,
{32}6,5,4,3,2,1,8,7,
{64}62,3,4,5,6,7,8,1,2,3,4,5,6,7,8,1,
{8}2/Cf,,,
{32}1,8,1,8,2b/7b,,
3,3,5,,4,4,7,,2,2,5,,1,1,6,,8,8,4,,2,2,5,,6,,37,,28,,1b,,
7,8,6h[32:1],,3,4,2h[32:1],,6,5,7h[32:1],,2,1,3h[32:1],,
6,4,8h[32:1],,,,21,,21,,8b/3b,,,,
{16}65,7,43,2,75,8,42,1,43,71,65,82,
6h[32:1]/4h[32:1],2h[32:1]/1h[32:1],5h[32:1]/3h[32:1],8h[32:1]/7h[32:1],
{32}1,1,8,8,2,2,6,6,4,4,7,7,3,3,5,5,
{2}2bh[2:1],
{64}8,37,46,5,,,,,
{8}Ch[4:1],,,
{32}1,1,1,1,1,1,1,1,
{64}1,28,37,46,5,,,,2b/8b,,,,,,,,
{16}2,2h[16:1],4,4h[16:1],5,5h[16:1],7,7h[16:1],
1,1h[16:1],7,7h[16:1],
{32}2,2,8,8,1bh[8:1],,,,7,,,,26,,48,,26,,,,1h[8:1]/5,,,,
7,,68,,2,,13,,5,,46,,3,3,7,7,1,,28,,37,,,,15,,,,2,2,4,4,3b,
,6,5,4b/7,,3,4,5b/2,,7,8,6/1b,,4,5,3b/6b,,,,15,,15,,1h[8:1]/5,,,,B6/E6,,,,
2,2,4,4,3,3,6,6,5,,48,,2h[8:1]/6,,,,Ch[8:6],,,,,,,,
{8},,,,,B1/B2/E2,B6/E6/B5,
{16}37,6,15,2,
{32}6,6,2,2,5,,48,,26,,3,3,4,,25,,1,7,3,5,1,8,4,6,
2,2,4,4,5,5,7,7,1,1,8,8,Ch[8:2],,,,,,,,,,,,8,7,6,5,
4h[16:1]/2,,1,5h[16:1],,8,6h[16:1],,8,1,2,3,5,6,7,8,
1h[16:1]/5,,4,8h[16:1],,3,7h[16:1],,1,2,3,4,1,8,7,6,
3,4,3,8,1,6,5,6,3,3,5,5,4,4,6,6,
1,8,3,4,1,8,5,6,3,3,4,4,5,5,6,6,
3,,2,8h[16:1],,1,7h[16:1],,8,1,2,3,8,7,6,5,
3,4,2,7,8,6,2,1,3,6,5,7,1,8,2,7,
3,3,5,5,2,2,6,6,4,4,7,7,1,1,8,8,2b,,,6,5b/7,,,18,2b/7bh[8:1],,,,
1,2,3,4,
5h[16:1]/7,,8,4h[16:1],,1,3h[16:1],,1,8,7,6,4,3,2,1,
8h[16:1]/4,,5,1h[16:1],,6,2h[16:1],,8,7,6,5,8,1,2,3,
6,5,7,4,1,2,8,3,7,8,6,1,4,3,5,2,7,7,5,5,8,8,3,3,4,4,1,1,7,7,2,,
38,,2,1,2,,37,,2,2,8,8,1,,27,,16,,7,8,7,,16,,7,7,1,1,8,,37,,
2,2,4,4,5,5,7,7,1,1,3,3,5,5,7,7,
{64}1,2,3,4,5,6,7,8,1,2,3,4,5,6,7,8,
16,5,4,3,2,1,8,7,6,5,4,3,2,1,8,7,
{16}
6/Cf,,,6h[16:3],7,,5,,
{32}
3h[16:3],,,4,,,4,,5h[8:1],,,,C,,,,
{16}
3h[16:3],,,6,6h[16:3],,C,,
{32}
78,,,8`6,,,12,,,3`1,,,18,,,,
{32}
3/6h[8:1],,,,,,4,5,3h[8:1],,,,C,,,,
{32}
21,,,81,,,78,,6h[8:1],,,,C,,,,
{16}
3,4,2,2h[16:3],,6,6,6h[8:1],
{16}
,B1/B2,E6/B5,B3/E4,E7,E3,C,,
{4}
1h/B5,2h,3h,4h,
{4}
5h/B1,6h,7h,8h,
{4}
E2,E3,E4,E5,
{4}
E6,E7,E8,
{8}
E1/2h[16:3],7h[16:1],
{32}
1b/8b,,3,3,5h[16:1],,2,2,7h[16:1],,1,8,2,,7,,
{48}
2,3,4,7,,,7,6,5,1,,,3,4,3,,,,6,5,6,,,,
{16}
18,18,27,27,34,45,56,27,
{32}
1,8,1,8,2,7,2,7,1,8,2,7,
{64}
1xb,B1,Cf,B5,,,,,
{64}
3b,4,5,6,7,8,1,2,
{16}
3b/5b,,6h[16:1],
{32}
8,7,1,,8h[16:1],,
{16}
2,36,28,17,
{32}
3,5,3,5,4,6,4,6,
{16}
1b,2b/8b,3b/7b,,
{32}
74,,6,6,3,3,5h[16:1],,
{32}
,,8b,,1b/7b,,2b/6b,,
{48}
3,4,5,6,7,8,
{8}
1h[16:1]/5h[16:1],
{64}
1b/5b,26,37,48,
{16}
,
{64}
E1/E5,B8`B4,B7`B3,E7`E3,
{16}
,
{32}
2,1,3,,7,8,7,8,
{16}
6,7b/5b,4b/6b,5b/3b,2h[16:1],
{32}
8,1,8,1,8,1,
{16}
7,86,15,2h[16:2]/4,,8,73,6h[16:2]/4,
{8}
,
{64}
4xb,5,6,7,8,1,2,3,4/7xb,6,5,4,3,2,1,8,7xb/2xb,36,45,,,,,,
{8}
4xh[16:13]/5xh[16:13],,,,
{8}
,,,
{64}
4xb/5xb,3x/6x,2x/7x,1x/8x,,,,,
{32}
2x/7x,,6,5,7,5,6,,3,4,2,,35,,46,,
{16}
,1b/8b,2b/7b,3b/6b,,
{32}
2,4,3,7,5,6,
{32}
1,,,,24,,81,,75,,36,,4,5,4,5,
{32}
,,7b/5b,,2b/4b,,1b/8b,,,,4,6,4,6,4,6,
{32}
3b,7,2b,6,1b,5,8bh[16:1],4,,,
{48}
5xb,6,7,1xb,2,3,4xbh[32:15]/1xb,8,7,
{8}
6h[96:39],,,,
{16}
3,4,5,6h[8:1],,3,4,5,
{16}
2,2,6,6,1h[16:1],7h[16:1],2h[16:1],8h[16:1],
{8}
3h[8:4],,,,
{8}
,,,
{64}
1xb/8xb,2x/7x,3x/6x,4x/5x,,,,,
{32}
1h[32:1]/3,,2/8h[32:1],,1/7h[32:1],,,,45,,3,4,2,6,5,7,
{32}
1h[8:1],,,,,,7,8,6,,2,1,2,1,2,,
{32}
3/8h[32:1],,2/7h[32:1],,1/6h[32:1],,,,45,,2,4,3,7,5,6,
{48}
1,2,3,
{32}
4h[8:1],,,,1,,,,8,2,
{64}
7,6,5,4,3,2,1,8,
{16}
3/7h[32:1],2/6h[32:1],1/5h[32:1],,24,
{32}
3,5,4,7,5,6,
{32}
1h[8:1],,,,,,2,4,2,,6,5,6,5,7,,
{16}
4/8h[32:1],3/7h[32:1],2/6h[32:1],,35,
{32}
6,4,5,2,4,3,
{8}
8h[16:6],,,,
{48}
2,1,2,1,2,1,
{32}
3,8,4,7,5,,
{16}
8h[32:1]/6,1h[32:1]/7,2h[32:1]/8,
{8}
1/3,
{32}
7,,68,,,,
{48}
1,8,1,
{32}
8,,27,,
{48}
3,4,3,4,3,4,
{32}
2h[32:1],,7,8,7,,
{16}
1h[32:1]/6,2h[32:1]/7,3h[32:1]/8,
{8}
14,
{16}
8,17,,
{32}
4,3h[32:3]/5h[32:3],,,,,
{48}
2,4,2,4,2,4,
{32}
1h[32:3],,8h[16:1],,,,
{48}
7,5,7,
{24}
5,4,6,
{16}
3h[8:1],,1,
{64}
1,8,7,6,
{24}
2,2,4,
{16}
3h[16:1],5h[16:1],
{56}
2,1,8,7,6,5,4,
{24}
8,8,8,
{16}
7h[16:1],
{64}
1,2,3,4,5,6,7,8,15,26,37,48,
{8}
1h[8:3]/5h[8:3],,,,
{2}
3b/7b,
