&title=Against, Perfect Cherry Blossom.
&artist=Alstroemeria Records
&first=0
&des=NullZone
&lv_5=12+
&inote_5=(140)
{1},{4},,,{16},,,{32},{192},
{2}
6-1[2
:
1]/4-1[2
:
1],,8/3V58[2
:
1],,
5s1[2
:
1]/1,,5V74[2
:
1]/3V14[2
:
1],,
5-8[2
:
1]/8z4[2
:
1],,6-2[16
:
3]/2<4[8
:
3],,
1<4[2
:
1],4<1[2
:
1],1w5[2
:
1],,
{4}
7/3h[4
:
1],4h[4
:
1],5h[4
:
1],6h[4
:
1],
7h[4
:
1],8h[4
:
1],1h[4
:
1],2h[4
:
1],
4h[4
:
1],3h[4
:
1],2h[4
:
1],1h[4
:
1],
8h[4
:
1],7h[4
:
1],6h[4
:
1],5,
1h[8
:
1]/2h[8
:
1],2h[8
:
1]/3h[8
:
1],
4h[8
:
1]/3h[8
:
1],5h[8
:
1]/4h[8
:
1],
6h[8
:
1]/5h[8
:
1],7h[8
:
1]/6h[8
:
1],
7h[8
:
1]/8h[8
:
1],8/1,
{16}
3,4,3,,6,5,6,,3,4,2,,6,5,7,,
3,4,1,,6,5,8,,7/2,,7/2,,8b/1b,,,,
{8}
6/3h[4
:
1],1,6h[4
:
1],8,3h[4
:
1],2,6h[4
:
1],7,
1q5[8
:
1],1,7p3[8
:
1],7,8V24[8
:
1],8,5,6,
7h[4
:
1],5,2h[4
:
1],4,7h[4
:
1],6,2h[4
:
1],3,
5q1[8
:
1],5,3p7[8
:
1],3,4V68[8
:
1],4,1,2,
3h[4
:
1],4,6h[4
:
1],4,1h[4
:
1],4,8h[4
:
1],4,
1-3[8
:
1],1,7-5[8
:
1],7,8q4[8
:
1],8,5,6,
7b<4[8
:
1],,7/8,1,2b>5[8
:
1],,1/2,8,7bv4[8
:
1],,,
2,1,8,7,6,5q1[8
:
1],5,2>4[8
:
1],2,6-8[8
:
1],6,1v4[8
:
1],1,
6,6,2,7/3,4,4,7,6/2,
1q5[8
:
1],1,6<8[8
:
1],6,2-4[8
:
1],2,5v8[8
:
1],5,
2,2,6,7/3,6,6,3,6/2,
5-8[8
:
1],5,2v5[8
:
1],2,6-1[8
:
1],6,4v2[8
:
1],4,
7,7,6/4,8/1,5/3,,
6-8[8
:
1]/2-4[8
:
1],1,6b/2b,,6<8[8
:
1]/2-5[8
:
1],1,6b/2b,,
6<1[8
:
1]/2v5[8
:
1],1,6b/2bpp1[8
:
3],,,,,,,,
5h[4
:
1],4,3h[4
:
1],4,6h[4
:
1],4,2h[4
:
1],4,
6-8[8
:
1],6,2>5[8
:
1],2,6<1[8
:
1],6,2v5[8
:
1],2,
7,7h[4
:
1],1,1h[4
:
1],8,8,2,2,
4<7[8
:
1],4>1[8
:
1],4-8[8
:
1],,,,7/2,,
4h[4
:
1],5,6h[4
:
1],5,3h[4
:
1],5,7h[4
:
1],5,
3-1[8
:
1],3,7<4[8
:
1],7,3>8[8
:
1],3,7v4[8
:
1],7,
{8}
2bv5[8
:
1],,8,7,6b<1[8
:
1],,4,3,
{1}
2b>2[2
:
1]
*
<2[2
:
1],
{8}
5/4,7b/2,7/2b,,4,4,5,5,
{2}
6h[2
:
4]/3h[2
:
1],,2h[4
:
1],1h[4
:
1],8pp3[1
:
1],,7h[4
:
1],6h[4
:
1],
{4}
5/4-1[4
:
3],5,6,7,
8-5[4
:
3],1,2,3,
4>1[4
:
2],6,7,8qq5[4
:
3],
{8}
2,2,2,2,
,,,,
{16}
2>5[8
:
1],,,8,2,,7,,6<1[8
:
1],,,4,6,,3,,
2-5[8
:
1],,,8,2,,7,,6-1[8
:
1],,,4,6,,3,,
2v5[8
:
1],,,8,2,,7,,6v1[8
:
1],,,4,6,,3,,
2q6[8
:
1],,,8,2,,7h[8
:
1],,8q4[8
:
1],7,8,7,8,,,,
{4}
5<1[4
:
1],1>5[4
:
1],5<1[4
:
1],1>5[4
:
1],
5V71[4
:
1],1V35[4
:
1],5V71[4
:
1],1-5[8
:
1],
3p7[8
:
1]
*
>8[8
:
1],,6p2[8
:
1]
*
>3[8
:
1],,
8b<1[8
:
3]
*
>7[8
:
3],,,,
{8}
8p4[8
:
1],8,2q6[8
:
1],2,1h[4
:
1],,3p7[8
:
1],3,5q1[8
:
1],5,4,,
7-4[8
:
1]/2-5[8
:
1],8/1,7/2,,
1q5[8
:
1],1,7p3[8
:
1],7,8h[4
:
1],,6q2[8
:
1],6,4p8[8
:
1],4,5,,
7-2[8
:
1]/3-6[8
:
1],6/2,7/3,,
3>8[8
:
1],3,7<4[8
:
1],7,3h[4
:
1],,1<6[8
:
1],1,5>2[8
:
1],5,1h[4
:
1],,
5,6/4,7/3,8/2,1>4[8
:
1],,1<6[8
:
1],,1-4[8
:
1],,1-6[8
:
1],,
1-5[8
:
1],,1<6[8
:
1]
*
>4[8
:
1],,1w5[8
:
1],,1b,,
7<5[8
:
1],8,2>4[8
:
1],1,8h[4
:
1],,2-5[8
:
1],1,7-4[8
:
1],8,1h[4
:
1],,
5,5,4,6,2>4[8
:
1],1,7<5[8
:
1],8,1h[4
:
1],,7-4[8
:
1],8,2-5[8
:
1],1,8h[4
:
1],,
4,4,5,3,7qq1[8
:
3],,,1>8[8
:
3],2h[4
:
1],,,,
{4}
3>8[8
:
1],5<8[8
:
1],4p8[8
:
1],5pp5[4
:
1],
{16}
1,,2,,3,,4,,5,,6,,7,,8,,3,5,1,,6,4,8,,
7-4[8
:
1]/2-5[8
:
1],,8/1,,7b/2b,,,,
{8}
6/3h[4
:
1],7,5h[4
:
1],1,4h[4
:
1],8,6h[4
:
1],2,
3>1[8
:
1],4,6<8[8
:
1],5,3-1[8
:
1],4,6-8[8
:
1],5,
3,3h[4
:
1],5,5h[4
:
1],4,4h[4
:
1],6,6h[8
:
1],
1v4[8
:
1],7<5[8
:
1],1,7,2v5[8
:
1],8<6[8
:
1],2,8,
3h[4
:
1],1,6h[4
:
1],8,4h[4
:
1],2,5h[4
:
1],7,
1>4[8
:
1],1<6[8
:
1],1-5[8
:
1],,,,
7-5[8
:
1]/8-4[8
:
1],6/1,7b/8,,1-5[8
:
1]/2-4[8
:
1],8/3,1/2b,,
8<5[8
:
1]/1>4[8
:
1],7/2,8b/1b,,,
2-5[8
:
1],8,2,6pp1[8
:
3],4,6,,,,,
3-8[8
:
1],5,3,7-5[8
:
1],2-4[8
:
1],7,2,
8<5[8
:
1],1>4[8
:
1],8qq4[8
:
3],1,8,,,,,
6-1[8
:
1],4,6,2>4[8
:
1],7<5[8
:
1],2,7,
1-3[8
:
1],8-4[8
:
1],1<2[8
:
3],8,1,,,,,
1-5[8
:
1],7,1,8<6[8
:
1],2>4[8
:
1],8v5[8
:
1],2,8b,,
6-8[8
:
1]/2-4[8
:
1],1,6b/2b,,6<8[8
:
1]/2-5[8
:
1],1,6b/2b,,
6<1[8
:
1]/2v5[8
:
1],1,6b/2bpp1[8
:
3],,,,,,,,
{1}
7b/2b,,,,
E
