&title=My Future
&artist=Viewtifulday
&first=0
&lv_5=14
&des_5=H2O2ange(Visions From Silent Area in Creeping Supersonic Life)
&inote_5=
(182.3){4},{1},{4},,,{8},8h[4:1],
,1h[4:1],,7h[4:1],,2h[4:1],
,1h[4:1],,8h[4:1],,7h[4:1],,5h[4:1],
,8h[4:1],,1h[4:1],,7h[4:1],,2h[4:1],
,1h[4:1],,8h[4:1],,7h[4:1],,5h[4:1],
,6h[4:1],,3h[4:1],,5h[4:1],,4h[4:1],
,8h[4:1],,1h[4:1],,2h[4:1],,3h[4:1],
,6h[4:1],,3h[4:1],,5h[4:1],,4h[4:1],
,8h[4:1],,1h[4:1],,2h[4:1],,3h[4:1],
,8,1,1/8,1,8,1,1/8,
1,8,1,1/8,1,8,1,8/1,
1,7,2,7/2,2,7,2,7/2,
2,6,3,6/3,3,6,3,6/3,
3,4,5,4/5,5,4,5,4/5,
5,4,5,4/5,5,4,5,4/5,
5,3,6,3/6,6,3,6,3/6,
6,3,6,6/3,{4}7h[8:3],{8}1,2,
3,8,5,8/5,5,8,5,8/5,
5,8,5,8/5,5,8,5,8/5,
5,1,4,1/4,4,1,4,1/4,
4,1,4,1/4,4,1,4,1/4,
4,7,8,7/8,8,7,8,7/8,
8,7,8,7/8,8,7,8,7/8,
8,6,4,4/6,4,6,4,4/6,
4,6,4,4/6,4,6,4,4/6,
4,2,1,2/1,1,2,1,2/1,
1,2,1,2/1,1,2,1,2/1,
1,3,5,5/3,5,3,5,5/3,
5,3,5,5/3,5,3,5,5/3,
5,6/4,7,3/5,2,4/6,8,3/5,
1,6/5,7,4/3,2,6/5,8,3/4,
1,8/7,7/8,6/1,1/6,2/5,2/5,3/4,
3/4,1/2,1/2,8/3,8/3,7/4,7/4,6/5,
6/5,8/1,2,1/8,7,3/4,1,6/5,
8,8/1,2,1/8,7,3/4,2,6/5,
7,4/5,6,5/4,3,7/8,5,2/1,
4,4/5,6,5/4,3,7/8,5,2/1,
4,5/6,7,5/6,4,2/1,8,2/1,
3,7/8,6,7/8,1,4/3,5,4/3,
2,8/1,7,1/8,2,5/4,6,4/5,
3,4/5h[4:3],7,2,8,1,6,4,
8,8/1,{16}8,1,{8}8,1,1/2,3/4,4/5,
3/4,1/8,{16}1,8,{8}1,8,8/7,6/5,5/4,
6/5,5/6,{16}6,5,{8}6,5,2/8,1/7,2/8,
7/1,4/3,{16}3,4,{8}3,4,3/5,4/6,3/5,
6/4,8/7,{16}7,8,{8}7,8,1/4,2,1/4,
2,1/2,{16}2,1,{8}2,1,8/5,7,8/5,
7,7/5,{16}8,1,{8}2/5,8/1,6/5,8/1,3/4,
8/1,5/4,8/7,5/4,2/1,1/8,5/6,8/1,
3/4,8w4b[8:49]/1w5b[8:49],{1},,,{4},,,{8},Ch[4:1],
{4},,,{8},Ch[4:1],
{4},,,{8},Ch[2:3],
{1},{4},,,{16},,{32},8,
{16},{32},1,{16},{32},8,{16},{32},1,{16},{32},7,{16},{32},8,{16},{32},7,{16},{32},8,
{16},{32},8,{16},{32},1,{16},{32},8,{16},{32},1,{16},{32},7,{16},{32},8,{16},{32},7,{16},{32},8,
{16},{32},5,{16},{32},4,{16},{32},5,{16},{32},4,{16},{32},6,{16},{32},5,{16},{32},6,{16},{32},5,
{16},{32},5,{16},{32},4,{16},{32},5,{16},{32},4,{16},{32},6,{16},{32},5,{16},{32},6,{16},{32},5,
{16},{32},1,{16},{32},2,{16},{32},1,{16},{32},2,{16},{32},8,{16},{32},1,{16},{32},8,{16},{32},1,
{16},{32},1,{16},{32},2,{16},{32},1,{16},{32},2,{16},{32},8,{16},{32},1,{16},{32},8,{16},{32},1,
{16},{32},4,{16},{32},3,{16},{32},4,{16},{32},3,{16},{32},5,{16},{32},4,{16},{32},5,{16},{32},4,
{16},{32},4,{16},{32},3,{16},{32},4,{16},{32},3,{16},{32},5,{16},{32},4,{16},{32},5,{16},{32},4,
{16},{32},1/7,{16},{32},2/7,{16},{32},8/7,{16},{32},1/7,{16},{32},2/7,{16},{32},8/7,{16},{32},1/7,
{16},{32},8/1,{16},{32},2/8,{16},{32},3/8,{16},{32},1/8,{16},{32},2/8,{16},{32},3/8,{16},{32},1/8,{16},{32},2/8,
{16},{32},1/2,{16},{32},3/1,{16},{32},4/1,{16},{32},2/1,{16},{32},3/1,{16},{32},4/1,{16},{32},2/1,{16},{32},3/1,
{16},{32},3/4,{16},{32},5/3,{16},{32},6/3,{16},{32},4/3,{16},{32},5/3,{16},{32},6/3,{16},{32},4/6,{16},{32},5/6,
{16},{32},7/8,{16},{32},1/7,{16},{32},2/7,{16},{32},8/7,{16},{32},1/7,{16},{32},2/7,{16},{32},8/7,{16},{32},1/7,
{16},{32},8/1,{16},{32},2/8,{16},{32},3/8,{16},{32},1/8,{16},{32},2/8,{16},{32},3/8,{16},{32},1/8,{16},{32},2/8,
{16},{32},1/2,{16},{32},3/1,{16},{32},4/1,{16},{32},2/1,{16},{32},3/1,{16},{32},4/1,{16},{32},2/1,{16},{32},3/1,
{16},{32},3/4,{16},{32},5/3,{16},{32},6/3,{16},{32},4/3,{16},{32},5/3,{16},{32},6/3,{16},{32},4/6,{16},{32},5/6,
{16},{32},7/8,{16},{32},1/7,{16},{32},2/7,{16},{32},8/7,{16},{32},1/7,{16},{32},2/7,{16},{32},8/7,{16},{32},1/7,
{16},{32},8/1,{16},{32},2/8,{16},{32},3/8,{16},{32},1/8,{16},{32},2/8,{16},{32},3/8,{16},{32},1/8,{16},{32},2/8,
{16},{32},1/2,{16},{32},3/1,{16},{32},4/1,{16},{32},2/1,{16},{32},3/1,{16},{32},4/1,{16},{32},2/1,{16},{32},3/1,
{16},{32},3/4,{16},{32},5/3,{16},{32},6/3,{16},{32},4/3,{16},{32},5/3,{16},{32},6/3,{16},{32},4/6,{16},{32},5/6,
{16},{32},8/7,{16},{32},7/8,{16},{32},1/6,{16},{32},1/6,{16},{32},2/5,{16},{32},2/5,{16},{32},3/4,{16},{32},3/4,
{16},{32},1/2,{16},{32},1/2,{16},{32},3/8,{16},{32},3/8,{16},{32},7/4,{16},{32},7/4,{16},{32},5/6,{16},{32},5/6,
{16},{32},8/1,{16},{32},1/8,{16},{32},2/7,{16},{32},2/7,{16},{32},3/6,{16},{32},3/6,{16},{32},4/5,{16},{32},4/5,
{16},{32},1/5,{16},{32},2/6,{16},{32},3/7,{16},{32},4/8,{16},{32},8/4,{16},{32},3/7,{16},{32},2/6,{16},{32},1/5,
{16},{32},8/1,{16},{32},5/3,{16},{32},8/1,{16},{32},4/6,{16},{32},8/1,{16},{32},5/3,{16},{32},8/1,{16},{32},6/4,
{16},{32},5/4,{16},{32},1/7,{16},{32},5/4,{16},{32},8/2,{16},{32},5/4,{16},{32},1/7,{16},{32},5/4,{16},{32},2/8,
{16},{32},7/1,{16},{32},4/5,{16},{32},8/2,{16},{32},5/4,{16},{32},1/7,{16},{32},4/5,{16},{32},8/2,{16},{32},5/4,
{16},{32},4/6,{16},{32},1/8,{16},{32},3/5,{16},{32},8/1,{16},{32},6/4,{16},{32},1/8,{16},{32},3/5,{16},{32},4/6,
{16},{32},8/1,{16},{32},4/3,{16},{32},8/1,{16},{32},3/4,{16},{32},1/8,{16},{32},5/6,{16},{32},8/1,{16},{32},5/6,
{16},{32},4/5,{16},{32},7/8,{16},{32},5/4,{16},{32},7/8,{16},{32},4/5,{16},{32},2/1,{16},{32},4/5,{16},{32},2/1,
{16},{32},7/8,{16},{32},4/3,{16},{32},2/1,{16},{32},5/6,{16},{32},8/7,{16},{32},4/3,{16},{32},2/1,{16},{32},5/6,
{16},{32},8/2,{16},{32},3/4,{16},{32},1/7,{16},{32},5/6,{16},{32},4/5,{16},{32},7/1,{16},{32},4/5,{16},{32},2/8,
{16},{32},8/5,{16},{32},2/7,{16},{32},8/5,{16},{32},2/7,{16},{32},1/4,{16},{32},7/2,{16},{32},1/4,{16},{32},7/2,
{16},{32},8/5,{16},{32},2/7,{16},{32},8/5,{16},{32},2/7,{16},{32},1/4,{16},{32},7/2,{16},{32},1/4,{16},{32},7/2,
{16},{32},7/8,{16},{32},6/5,{16},{32},5/4,{16},{32},3/6,{16},{32},2/1,{16},{32},3/4,{16},{32},4/5,{16},{32},6/2,
{16},{32},8/5,{16},{32},8/2,{16},{32},1/4,{16},{32},6/1,{16},{32},7/2,,3,,4/8,{16},{32},5/4,{16},{32},3/6,
{16},{32},8/2,{16},{32},5/4,{16},{32},1/7,{16},{32},4/5,{16},{32},7/8,{16},{32},4/5,{16},{32},1/2,{16},{32},4/5,
{16},{32},1/7,{16},{32},7/4,{16},{32},8/2,{16},{32},2/5,{16},{32},4/6,{16},{32},6/1,{16},{32},5/3,{16},{32},3/8,
{16},{32},1/2,{16},{32},5/6,{16},{32},7/8,{16},{32},4/3,{16},{32},1/2,{16},{32},5/6,{16},{32},7/8,{16},{32},4/3,
{16},{32},1/7,{16},{32},6/5,{16},{32},8/2,{16},{32},4/3,{16},{32},5/4,{16},{32},1/7,{16},{32},4/5,{16},{32},2/8,
{16},{32},5w1b[16:55]/4w8b[16:55],
