&title=ガジェットはプリンセス
&artist=sasakure.UK
&first=0
&des=乱就乱吧 无所谓了
&lv_5=14
&inote_5=(190){1},
{8}5/4h[4:1],,5x,,5,3h[8:1],5x,4h[8:3],5,,5x,3h[8:3],5,,5x,,
{8}6/4h[4:1],,6x,,6,5h[8:1],6x,3h[8:3],6,,6x,2h[8:3],,,8x,,
{8}4/5h[4:1],,4x,,4,6h[8:1],4x,5h[8:3],4,,4x,6h[8:3],4,,4x,,
{8}3/5h[4:1],,3x,,3,4h[8:1],3x,8<4[8:3],,,,,{16}E2/D2,D1,D8,D7,D6,D5,D4,D3,
{8}6xhb[4:1],,A1/E2/E1,,3,4,5,6h[4:1]/4,
,,A1/E2/E1,,35,5,4,6,
3/7,7,7/A1/E2/E1,7,{16}7/3h[4:1],6,5,,,,6h[4:1]/4,,
{8},,A1/E2/E1,,{16}7x,6x,5x,4x,3x,2x,1x,8x,
{8}3xh[4:1],,A8/E8/E1,,6,5,4,3h[4:1]/5,
,,A8/E8/E1,,64,4,5,3,
6/2,2,2/A8/E8/E1,2,{16}2/6h[4:1],3,4,,,,3h[4:1]/5,,
{8},,A8/E8/E1,,6xv5-3[4:1],,,,
{8}2xh[4:1],,,,5h[4:1],3h[8:1],,4h[8:3]/6h[8:3],
,,,7h[8:3]/5h[8:3],,,,,
7h[4:1],,,,4h[4:1],6h[8:1],,5h[8:3]/3h[8:3],
,,,2h[4:1]/4h[8:3],,,1x,,
{8}2h[4:1],,6,,7h[4:1],5h[8:1],,4h[4:1]/6h[4:1],
,,3,3h[8:3]/5h[8:3],,,,,
2h[128:1]/7h[128:15],4h[128:1],3h[128:1]/8h[128:15],5h[128:1],{16}4h[128:1],6h[128:1],2h[128:1],,8h[128:1],,1-4[8:5]/7h[128:1],,
{1},
{8}4b/A8,A7,A6/4x,A5,4,E8,4x/E7,E6,4,B7,4x/C,B6,4,,4x,,
3/A8,A7,A6/3x,A5,3,E8,3x/E7,E6,3,B7,3x/C,B6,3,,3x,,
1,8h[8:1],C,1,A2,8h[8:1],1,A3,8h[8:1],1,A4,8h[8:1],1,A5,8qq5[1:1],,
3,,3,,2,,2,,1,,1,,{16}1h[8:1]/5h[8:1],,,2h[8:1]/6h[8:1],,,37,,
{8}8b,8,8/1x>4[8:1],8,8,8,8/2x>5[8:1],8,
8,8,8/3x<6[8:1],8,8,8,8/4x-8[8:1],8,
{8}7,7,7/1x>4[8:1],7,7,7,7/2x>5[8:1],7,
7,7,7/3x<6[8:1],7,7,7,7/4x,3,
5,1h[8:1],A8,3,2h[8:1],A7,1,5,
A6/B6,7x,1h[8:1],A5/B5,2/6x,4,8b-4[8:1]/C,,
{8}1h[128:1],2h[128:1],1h[128:1],2h[128:1],{16}5h[128:1],3h[128:1],7h[128:1],,1h[128:1],,8hb[8:5]/2b-6[4:1],,
{2},{24}5,4,3,7,6,5,1,2,3,7,8,1,
{8}4b-6-2-8[16:7],,8,8,8,7,7,6b-8-4-2[16:7],
,2,2,1bV75[4:1]*V73[4:1],,1,,,
2b-4-1-5[16:7],,5,5,6,6,7,8b-2-7-3b[16:7],
,5,5,4hb[8:3],,{24}D2,A1,D1,A8,D8,A7,D7,A6,D6,
{8}5xb-3-7-1[16:7],,1,1,1,2,2,3b-1-5-7[16:7],
,7,7,8bV24[4:1]*V26[4:1],,8,,,
7b-5-8-4[16:7],,3h[8:1],,2h[8:1],,1h[8:1],,
{24}6-4[8:1],7h[128:1],,2-8[8:1],3h[128:1],,6,,,2V48[4:1],,,{16}A5/B5,,,A6/B6,,,A7/B7,,
{8}1b,,D2/E2/7,7,7/D3/E3,6,6/E2/D2,5hb[8:1],
D3/E3,5,D2/E2/6,7hb[8:1],D3/E3,7,D2/E2/8,,
1b/E7/D7,1,8/A3/B3,8,E7/D7/2,2,A3/B3/5,5hb[8:1],
A1/E2,5,6/A3/B3,6b,1xh[4:1],{24}D4,A4,D5,A5,D6,A6,D7,A7,D8,
{8}8xb,,B8/E8/2,2,2/E7/B6,3,3/E8/B8,4hb[8:1],
B6/E7,4,B8/E8/3,2hb[8:1],B6/E7,2,E8/D8/1,,
8b/E3/D3,8,1/A6/B6,1,E3/D3/7,7,A6/B6/4,4hb[8:1],
{24}7-5[8:1],8h[128:1],,3-5[8:1],2h[128:1],,{8}7pp4b[2:1],3,,,,,
{16}2xhb[4:1],,,,5,3,7,,4,8,2,,5,1,7,,
7-3[8:1],,,,1-4[8:1],,,,7-3[8:1],,,,1h[4:1],,,,
5,3,7,,4,8,2,,5,1,7,,2,8,4,,
4-8[8:1],,,,7-2[8:1],,,,4-8[8:1],,,,7h[4:1],,,,
2b,6,4,,7,3,5,,1,6,4,,8,3,5,,
5-8[8:1],,,,2-6[8:1],,,,5-8[8:1],,,,2h[4:1],,,,
7,3,5,,2,6,4,,8,3,5,,1,6,4,,
{24}8-6[8:1],7h[128:1],,2-4[8:1],3h[128:1],,{8}8,2,{16}5,5,5,5,5,5,5,5,
{8}5b>2[8:1],,7-3[8:1]/5,,1-6[8:1]/7,,15,5<8[8:1],
{24},,,2-6[8:1],3,4
,,,,5<8[8:1],,,,,,1,2,3,4,,,,,,
{8}4b<7[8:1],,2-6[8:1]/4,,8-3[8:1]/2,,84,4>1[8:1],
{24},,,7-3[8:1],6,5
,,,,4>1[8:1],,,,,,8,7,6,5,,,,,,
{8}5b>2[8:1],,7-3[8:1]/5,,1-6[8:1]/7,,15,5<8[8:1],
{24},,,2-6[8:1],3,4
,,,,5<8[8:1],,,,,,1,2,3,4,,,,,,
{8}4b<7[8:1],,2-6[8:1]/4,,8-3[8:1]/2,,84,4w8[4:1],
{2},{24}2,3,4,8,7,6,2,1,8,4,5,6,
{8}2b-5[8:1],,2x/8,,6,4,35,1,
2-5[8:1],,2x/8,,6,4,37,1,
2-5[8:1]/8,8,2x/8,8,{16}38,7,6-8[8:1],,{8},1,
2-5[8:1],3,2x/8,7h[4:1],{16}3,2,1,8,7,6,5,4,
{8}7b-4[8:1]/3,,7x/1,,3,5,64,8,
7-4[8:1],,7x/1,,3,5,62,8,
7-4[8:1]/1,1,7x/1,1,{16}61,2,3-1[8:1],,{8},8,
7-4-8[4:1],6,7x/1,2,3xv4-6[4:1],,,,
{8}7xhb[8:3],,,,,46,,3h[4:1]/5h[4:1],
,,,2h[8:3]/4h[8:3],,,,,
3h[8:3],,,,,45,,5h[8:3]/6h[8:3],
,,,7,{16}6x,5x,4x,3x,2x,1x,8x,7x,
{8}2xh[8:3],,,,,53,,6h[4:1]/4h[4:1],
,,,7h[8:3]/5h[8:3],,,,,
6h[8:3],,,,,54,,4h[8:3]/3h[8:3],
,,,2,2xpp3[4:1],,,,
8xz4[2:7],,,,,4x,,3x,,,,6x,,,,,
5x,,,,,3x,,3x,,,
