&title=鸡鸡操你。
&artist=威严满满的大小姐
&first=-0.15
&des=完美潇洒
&des_5=
&des_7=
&lv_5=1
&lv_7=舞
&inote_5=
&inote_7=(100){8},{16}4,4,{32}4,5,{16}4,{64}8x/1x/E8f/B1f,{192}C,E7,,{64}B5,A5,{16}A6,,3,4,6,5V73[8:1],1x,{8}4x,
3x,4xV68[8:1],{16}3,3,{48}3x,2x,{12}1x,{48},,,{16}1p4[8:1],8,5,6,1,{8}8>3[8:1]*<5[8:1],
6/2,8b,{16},,2V84[16:3],2,4,3,7>5[8:3],7x,6x,6x,{8}A8f,
{48},,,,,,E8f,E1,{12}E2,3x,{48},,{16}3x,3,6,5,2,2,4,5,{8}7h[8:1],
1h[8:1],3h[4:1],{64}7h[8:1],,,,,,,,,8bx/4bx,1bx/5bx,2bx/6bx,3bx/7bx,4bx/8bx,5bx/1bx,6bx/2bx,{2}Cf,
E
