&title=Lament Rain
&artist=Ashrount vs. 打打だいず
&first=0
&des=Cathedral feat. Hisuiya
&des_5=Cathedral feat. Hisuiya
&lv_5=14+
&inote_5=(200){4},,,,{1}5/4V28-6<4[4:7],
{2},C,
{1}5-1[4:7],
{2},E3/B2,
{1}6>8pp5[2:3],
{2},E7/B7,
{1}7h[1:1]/3h[2:3],
{32},,,,,,,,,,,,,,,,E8,E1,E2,E3,E4,E5,E6,E7,7x,8x,1x,2x,3x,4x,5x,6x,
{8}3x-7[4:1]/7x-3[4:1],7x/3x,,Cf,,,{4}5/1,
{8}2/4,{16}3,4,{8}2,4,5/3,6/2,{4}1/7h[8:1],
{8}8-4[4:1]/4-8[4:1],4/8,,Cf,,,{4}2/6,
{8}4/7,{16}6,5,{8}7,5,6/4,7/3,{4}8/2,
{8}7/1h[8:1],7,6/2,5/3,2/4h[8:1],2,1/5,6/8,
7/5h[8:1],7,6/4,5/3,4/2h[8:1],4,1/3,8/2,
{16}1,7,5,6,3,4,2,8,4,6,3,5,1,8,4,6,
{4}7x/2xh[4:3],{8}E8,E1,E2,E3,E4,E5,
{4}Ch[16:1],5bx/7bxh[4:1],{8}8,6b/1bh[4:1],,8,
{4}2b/7bh[4:1],{8}5,6b/3bh[4:1],,4,2/8h[8:1],1,
8/2h[8:1],1,2/4,3/5,{32}4,5,6,7,8,1,2,3,4w8[4:1],5,6,7,8,1,2,3,
{2}4,{16}2,6,3,5,4,7,2,6,
{8}4b/C,{16},,,,3,4,{8}2,7,1,{32}2b/8bh[8:1],3,{16}4,
{32},,,,7b/1bh[8:1],6,{16}5,,,,,{8}5/B2,6,5,E8,
3b,2bz6[8:3],,,,,,8b-4[8:1],
,5,{16},,3b,2b,{4}1b-5[8:1],1/7-3[8:1],
{8}7/8,{16},,,,8,1,{8}2,5,3,{32}7b/1bh[8:1],6,{16}5,
{32},,,,2b/8bh[8:1],3,{16}4,,,{8}4/7,{4}6/5,{8}6/5,{16}4,3,
{8}2-5[8:1],{16},,,,8-4[8:1],7,{8}6,8,{16},,1-5[8:1],2,
{8}3,1,{16},,2-6[8:1],3,{8}4,2,{16}1-5[8:1],2,{8}3,
5x/1bx,{16},,,,6,5,{8}7,2,8,{32}7b/1bh[8:1],6,{16}5,
{32},,,,2b/8bh[8:1],3,{16}4,,,,,{8}4/B7,3,4,E2,
6b,7bs3[8:3],,,,,,1b-5[8:1],
,4,{16},,6b,7b,{4}8b,1/7v4[8:1],
{24}7/8,1,2,3v8[8:1],,,,,,3/4,5,6,{4}7v4[8:1],{24}7/8,1,2,3v1[8:1],,,,,,3/5,
6,7,{4}8v5[8:1],{24}8/4,3,2,1h[4:1],,,,6,7,8h[8:1],{48},,,,{16}1,
8,2,7,3,6,4,5,3,4,2,5,1,6,8,7,
{24}6x/1x,2,3,4,5,6,7,8,1,2x/7x,6,5,4,3,2,1,8,7,{4}6x/2x,
{8}2/5,{16}3,4,{8}3,2/5,{16}3,4,{8}3,7/4,{16}6,5,
{8}6,7,4-6[8:1],6,{16}4,2,3,4,5/8,1,2,3,
{8}7/4,{16}6,5,{8}6,7/4,{16}6,5,{8}6,2/5,{16}3,4,
{8}3,2,5-3[8:1],3,{16}5,7,6,5,4/1,8,7,6,
{8}2/5,{16}3,4,{8}3,2/5,{16}3,4,{8}3,7/4,{16}6,5,
{8}6,6-8b[8:1],8,6,{16}1,2,3,4,5/1,8,7,6,
{4}5b/2b-6b[8:1],{8}2b/6b,7b-3b[8:1],,7b/1bw5b[8:1],,1b,
,2b-6b[8:1],6b-2b[8:1],2b<4b[4:1],{32},,,,,,,,,,,,,,,,3,
2,1,8h[96:71],,,,,{4}7,{6}6,5,4h[48:53],
{8}3,2,1,{16}8,7,6,5,,3,{32}2,1,8,7,6,5,,3,
{4}2-6b[8:1],{32}2b/8b,B2f,{16}B6,,,7,8,{8}5,{16}2,1,{8}4,
{12}7x,5x,6x,2x,4x,3x,{4}7b-3[8:1],7b/1b-5b[8:1],
8b/1b,{16}7,4,6,3,5,4,6,5,{8}7bV16[16:3],7b,
{16},,,,2,5,3,6,4,5,3,4,{8}2b,2b-4[16:1],
{16},,,,7,5,6,3,5,4,6,5,{8}7b,7b-5[16:1],
{16},,,,2,4,3,6,4,5,3,4,{8}2b,2b,
3/5,2,4/6,7,2/5,3,7/4,6,
5/4,3,6/2,5,4/2,2/3,{16}2/1,8,7,6,
3,5,3,5,2,6,2,6,1,7,1,7,2,8,2,8,
1,8,2,7,1-5b[8:1],8,2,7,{2}1b,
{16}2h[16:3]/E6,,,7h[16:3]/B3,,,{8}1/Cf,{16},,,,7h[16:3]/E4,,,2h[16:3]/B6,
,,{8}8h[16:3]/C,{16},7x-5[8:1],,,{2}6bx-4b[8:1],
{16}7h[16:3]/E4,,,2h[16:3]/B6,,,{8}8/Cf,{16},,,,2h[16:3]/E6,,,7h[16:3]/B3,
,,{8}1h[16:3]/C,{16},2x-4[8:1],,,{2}3bx-5b[8:1],
{16}6h[16:3]/B2,,,4h[16:3]/E8,,,{8}5/E1f,{16},,,,3h[16:3]/B7,,,5h[16:3]/E2,
,,{8}4/E1,{16},6xV42[4:1],,,{2}5bxV31b[16:3],
{16}7,7h[16:3],,,6h[16:3],,,5h[16:3],,,3-6b[8:1],4,{4}2,
{16},,,7h[8:1]/8h[8:1],,,{8}6h[8:1]/1h[8:1],{16},5h[16:3]/2h[16:3],,,,,,,{8}Cf/A4/B4/B8,
,,7/3<1[4:3],,2,,3h[16:1],
,4h[8:1],,5h[16:1],,C,,,E4/E8,
,,2/6>8[4:3],,7,,6h[16:1],
,5h[8:1],,4h[16:1],,C,,,3/7,
3,3/4,3,3/5,3,3/6,6,
6/2,6,6/8,6,6/1,6,{16}6/2>5[8:1],7,8,1,
{8}2,8-6[8:1],6-4[8:1],8,{16}1,8,7,6,5,4,3,2,
{1}8/1s5[2:1],
8-4[4:7],
{2}A2,A1,
{1}8-4[4:7],
{2}A6,A7,
{1}8-4b[4:7],
{2}A3,B8,
{1}1-5[2:3],
8-6[2:1],
{2}4<1[2:3],4,
3,2,
{1}5>1[2:3],
{2}5,4,
{1}8/3-7[2:3],
,3/1-5[8:9],
{2}2-5b[8:1],{8}6b,7b-4-6[4:1],,,{4}2,
{8}8/2,2,2/7,2,2/6,{16}2,3,
{8}5/4h[4:1],5,5,{16}5,6,{8}1/7h[4:1],1,1,{16}1,2,
{8}4/3,4/3,5/2,5/2,6/1,6/1,7h[8:1],{24}8,1,2,
{8}3,6,5,{24}1,8,7,{2}6<3[4:1],
{8}5,5,4,4,3/7,3/7,2/6,2/6,
{16}1,5,8,4,1,5,8,4,{24}7x,3x,7x,3x,7x,3x,7x,3x,7x,3x,7x,3x,
{1}1q4b[8:7]/5p4[8:7],
{8},,,7h[4:1],,8,1,2,
3/7-3[8:1],{16}8,1,{8}7,{16}2,4,2,5,{8}3,6/4h[8:1],1<6[8:1],
,4/1>4[8:1],{16},,5/1,6,{8}7,5,4/8,3,
2/6-2[8:1],{16}5,4,{8}6,{16}3,1,3,8,{8}2,1/7,4V68[4:1],
,4/8V24[4:1],,,,6,5,4,
{4}3/7V53-1[8:3],B1/E2/B2,B6/E6/B5,{8}8,7,
{4}6/1-5[8:1],1/8-3[8:1],8/4-6[8:1],{8}4,{16}7,8,
5b,,,1/6h[8:1],,2,{8}7,{16}1b/4,,,8/3h[8:1],,7,{8}4,
5b/6b,{16}3,4,2,6,5,7h[16:3],,,,,{8}8/7,1/8,
1/2-6[8:1],{16}8,8,{8}2,{16}7,5,7,4,{8}6,3/5h[8:1],8>3[8:1],
,5/8<5[8:1],{16},,8/4,3,{8}2,4,5/1,6,
7/3-7[8:1],{16}5,5,{8}3,{16}6,8,6,1,{8}7,8/2,5V31b[4:1],
,5/1V75b[4:1],,,,3,4,5,
{4}6x/3x,{16}1,6,2,5,{24}3,4,3,4,,,{8}2/5,6/1,
{4}7/2,{16}8,3,7,4,{24}6,5,6,5,,,{8}7/4,3/8,
{4}7/2,{12}7,5,6,{24}4,5,4,6,,,{8}3,7,
2,1,{16}2,8,3,7,{32}4,5,6,7,8,1,2,3,4,5,6,7,8,1,2,3,
{1}4-8[8:11],
{8},,,,,,6-2V84[4:3],5,
,,,,{2}4V26[2:1],
8-3b[4:1],5-7b[8:1],
{8}2x/8x,{16}2>4[8:1],1,{8}3,7/2-6[8:1],,5/2-4[8:1],,2/7,
7,{16}2,1,4,5,8,7,{8}1x,8x,2x,{24}1/7-1[8:1],6,5,
{8}4,3/7-5[8:1],,2/7-3[8:1],,7/1,1,{16}7,8,
5,4,1,2,{8}8,{16}3>1[8:1],4,{8}2,6/3-7[8:1],,8/3-1[8:1],
,3/6-2[8:1],5,6,1,{16}7,8,6,5,6,4,
5,3,4,3,{8}5/2,{16}2,1,{8}3,{24}7,4,7,{8}4,{24}5,3,5,
{8}3,{24}4,6,4,{8}6,{16}2,4,{8}1,{16}7,5,6,5,{8}6h[8:1],
{16}3-1[8:1],4,2,4,{8}3,{16}7-5[8:1],8,6,8,{8}7,{16}3,4,2,5,
3,4,1,6,{24}8,7,8,7,8,7,{32}8x,1,2,3,7x,8,1,2,5x,6,7,8,1,2,3,4-1[8:13],
{1}5v8[32:51],
,8x/1xV35-7<1[4:7],
{2},C,
{1}8-4[4:7],
{2},E3/B3,
{1}7>5qq8[2:3],
,Ch[8:3],
E
