&title=刻ト詩
&artist=Luna
&first=0.04
&des=Azuki
&lv_5=12
&inote_5=(178)
{1},,
{1},
{8}2h[8:3]/8-4[8:3],,,,,,3,,
{8}34,,5/3,,4/6,,7>4[8:6]/5,7/5h[8:1],
{8},,,8,,,1,,
{8}2h[8:3],,4,5,5h[8:5],,4,3h[8:2],
{8},,37,7h[8:2]/3h[8:2],,,8pp6[8:4]/2,,
{8}3/8,,,4h[8:3],,,6,,
{8}5,7-3[8:1],8,6,1>5[8:2],,5<1[8:2],,
{8}1>5[8:2],,5<1[8:2],,,,,,
{8}7h[8:3]/1-5[8:3],,,,,,6,,
{8}65,,4/6,,5/3,,2<5[8:6]/4,2/4h[8:1],
{8},,,1,,,8,,
{8}7,7h[8:2],5,4,4h[8:5],,5,6h[8:2],
{8},,62,2h[8:2]/6h[8:2],,,1qq3[8:4]/7,,
{8}1,,5,,6,,3-7[8:1]/7,,
{8}5q1[8:1],,4,4h[8:2],,,8-4[8:1],8h[8:3],
{8},,,,8/4,3/7,6b/2b,,
{8}1>4[8:1]/5,,6,6h[8:3],,4,4,,
{8}5>2[8:1]/8,,7,7h[8:3],,2,2,4,
{8}3p6[8:1],,5,5h[8:3],,6,6,,
{8}6>3[8:1]/7,,8,8h[8:3],,3,3,,
{8}2h[8:3],,4,4h[8:5],,,7,,
{8}8h[8:3],,6,6h[8:3],,1,1,34,
{8}2h[8:8],,5,5,,3,3h[8:2],,
{8},,8/1,1h[8:2],,7,34,2,
{8}1-4[8:1],,8,8,,7,7,5-2[8:1],
{8}5,,6,6,,2,2,3/4-8[8:1],
{8}3,,1,1,,8,8,1,
{8}7,18,8,2,7,1,27,,
{8}1-5[8:1],,1,6-2[8:1],,6,5,4,
{8}3-6[8:1],,3,8-3[8:1],,78,6,5,
{8}4-8[8:1],,43,2-5[8:1],,21,8,7,
{8}6-1[8:1],,5,4-7[8:1],,43,2,1,
{8}8/6pp5[8:4],,2,2,,3,3,,
{8}25,3,47,6,15,2,37,6,
{8}25,34,47,56,18,34,18,56,
{16}27,,1,8,1,8,2,7,3,6,4,5,4,5,3,6,
{8}2bV84[8:2],,8,7,6h[8:2],,3h[8:2],5,
{8}4v7[8:1],,4/5v2[8:1],,5/3-8[8:1],,3/6-1[8:1],,
{8}6/4h[8:4],,,1s5[16:7],8z4[16:5],,,,
{8},,7-5[8:1],,7/1-3[8:1],,1/8-4[8:1],,
{8}8/4<2[8:4],,,2,2>5[8:2],,5<8[8:2],,
{8}8,,1h[8:6],,8,,2,,
{8}3V16[16:5],,3/5,5,,,7,7V52[16:5],
{8},71,1h[8:4],,,,2,,
{8}2>6[8:2]/3,,,7,7bV15[8:2],,1,2,
{8}3h[8:2],,6h[8:2],,5>2[8:2],,2q6[8:2],,
{8}6q3[8:2],,8,8h[8:2],,,,3>5[8:3],
{8},4,4h[8:4],,,,5-1[8:1],,
{8}1<3[8:3]/5,,,2,2h[8:2],,,,
{8}3,,2/4,,6,,5-8[8:1]/7,,
{8}4,,5<8[8:1],,4,,1h[8:2],,
{16}7,6,5,4,3,2,1,8,7,6/2,3,4,5,6,7,8,
{8}1pp5[16:5],,1,8,7-4[8:1],,7,8,
{8}1-5[8:1],,1/7-3[8:1],,7/2-5[8:1],,2/8-4[8:1],,
{8}3h[8:4]/8,,,4V61[16:7],5V38[16:5],,,,
{8},,2-4[8:1],,2/8-6[8:1],,8/1-5[8:1],,
{8}1/5>7[8:4],,,7,7<4[8:2],,4>1[8:2],,
{8}1,,6h[8:6],,8,,5,,
{8}3h[8:7],,4-8[8:1],4,,,,8,
{8},8z4[16:5],8,,2,,3>6[16:5],,
{8}5,,,8,8bV62[8:2],,6,5,
{8}4h[8:2],,1h[8:2],,2h[8:2],,3q7[16:3],,
{8}1/3,,2,2h[8:2],,6h[8:2],,5-1[8:1],
{8},7s3[8:2],7,,,,1>1[8:8]*<1[8:8],,
{1}1,
{4},1,28,37,
{8}4h[8:2]/6h[8:2],,,35,3h[8:2]/5h[8:2],,,74,
{8}7h[8:2]/4h[8:2],,,1/5,1h[8:2]/5h[8:2],,,37,
{8}37,6,15,2,38,7,61,2,
{8}37,6,25,3,46,5,34,7,
{16}1b,,6,5,6,,8b,,3,4,3,,1b,,82,,
{16}7/3,,6,5,6,,8b,,2,7,2,7,1-5[8:1],,8,,
{8}1bV72[8:15]*V74[8:15],,,,,,,,
E
