&title=IOR
&artist=ariiol
&first=-0.7
&des_1=Xyanide
&des_2=Xyanide
&des_3=Xyanide
&des_4=Xyanide
&des_5=Xyanide
&lv_5=14
&des_6=Xyanide
&des_7=Xyanide
&des=Xyanide
&inote_5=(169)
{8},,,,,,,,
{32}1b/8b<1[2:3],2/7,3/6,4/5,,,,,{4},C,,,,C,,8<1[2:3],,C,,,,C,,
{8}3h[4:1],,4,,6h[8:1],5h[8:1],7,,3h[4:1],,4,,{16}6,6,5h[8:1],,7h[8:1],,1x,,
{4}8<5[4:1],5>2[4:1],2<7[4:1],7-3[8:1],Cf,
{8},{24}6x,5,6,7x,,,3x,4,3,2xv5[8:1],,,,,,
{8}2b/6b,,7-4[8:1],1,7,2-5[8:1],,1/2,,{16}6,5,
7-4[8:1],,4v1[8:1],,7,,2h[4:1],,,,8,,
{8}7b/3b,,2-5[8:1],8,2,7v4[8:1],,8-3[8:1]/7,,{16}8/7,,
,,4/6,,7,6,5,4,3,2,1,8,
{8}7b/3b,,2v7[8:1],6-3[8:1],2,6,,1/5,,{16}3,4,
2-5[8:1],,5v8[8:1],,2,,7h[4:1],,,,1,,
{16}4/5,,6,5,7h[8:1],,1h[8:1],,8x,,3,2/4,,6,5/7<8[8:5],,
{8},,Ch[8:4]f,,,,,,
{4}5/6h[1:2],B4,B3,B2,B1,B8,B7,B5,4h[2:3],B5,B3,B2,B1,B8,
{16}6,,3,2/4,,6,7/5,,
{8}8x<6[8:1],4-8[8:1],8x,4,7x<5[8:1],3-7[8:1],7x,3,6x>4[8:1],2-6[8:1],6x,2,
{16}5,,,7/8,,,1/2,,
4,5,3,6,2,7,1,8,2,1,3,8,4,7,5,6,Cf/,,,,,,,,
{8}1-4[8:1]b/5-8[8:1]b,8/4,1bx/5bx,,
{8}3/7-4[8:1],8-5[8:1],7,8,{16}1-7-3-5[4:1],2,,2,1,,,,
8,1,2/6h[8:1],,2,3,4/5,6,7-4-6-8[4:1],,8,1,7,,,,
{8}2-6[8:1],1/3,2,8,{16}7<4[8:1],8,,8,7,,1,,
2,4,3,3,7,5,6,6,{32}1,2,3,4h[32:3],,,1x,2,3,4,,,1x,,,,
{8}8-4[8:1],7-5[8:1],8,7,{16}2>5[8:1],1,,1,2,,8,,
{16}7-4[8:1],6,5,,1-5[8:1]/7,2,3,,1-3-7[4:1]/8,7,6,,1,,,,
{8}8-4[8:1],1-5[8:1],8,1,{16}8,7,1,2,7-3[8:1],6,2,3,
{16}7-5[8:1],,1,1,7,,3,3,2b/4b,,,1b/8b,,,5b/7b,,
{8}6/2-5[8:1],1-4[8:1],2,1,{16}8-2-6-4[4:1],7,,7,8,,,,
{32}A7,E7,E6,,A1,E2,E3,,{8}8-4[8:1],1/7,{16}8-6-3[4:1],,2,2,8,,,,
{8}1-5[8:1],2-4[8:1],1,2,{16}1-7-5-3[4:1],2,,2,1,,,,
{16}1bx,2,3,4bx/E1,5,6,7bx/E3,8,1,2bx/E5,3,4,5bxh[16:3],7bxh[8:1],,,
{8}8-4[8:1],1-5[8:1],8,1,{16}7<4[8:1],8,,8,7,,1,,
{16}2x,3,4,5,1x,2,3,4,8x,1,2,3,4/5,6,7,8,
{8}1b/2b,3,4/5,6x,8b/7b,6,4/5,3x,
{16}1bx/2bx,,,5bx/4bx,,,7bx/8bx,,{32}1,2,3,4,5,6,7,8,{8}1b/5bxh[8:1],,
{4}3b/7b<1[1:1],,C,,1<3[1:1],,C,,3>5[1:1],,C,,5pp1[4:3],,{16}C,,,4x,,,3x,,
{4}2x>8[1:1],,C,,8>6[1:1],,C,,6qq2[4:3],,C,,{32}8bx,B8,C,B4,{16},,,,,,
{8}5bxw1[8:1],,B5/E5/E6,,
{8}7-5[8:1],8h[16:1],7,1,8-6[8:1],1h[16:1],8,2,
1-7[8:1],2h[16:1],1,3,2-8[8:1],3h[16:1],2,4,
3-1[8:1],4h[16:1],3,5,4-2[8:1],5h[16:1],4,6,
5-3[8:1],6h[16:1],5,7,6-4[8:1],7h[16:1],6,8,
{8}1x/8x,1,1/2x,2,2/3x,3,3/4x,4,4/5x,5,5/6x,6,6/7x,7,7/8x,8,
{16}1x,8,2,7,3,6,4,5,3,4,2,5,1,6,8,7,{8}Cf,,,,8x<5[8:1]b/4x>1[8:1]b,3x/7x,4bx/8bx,,
{8}8b-4[8:1]/4h[8:1],,8-6>5[8:1],6,8-2>3[8:1]/3,1,8/5,6,
{16}8v5[8:1]/4h[8:1],7,6,,8/1,,2,3,4/6-2-4[4:1],7,8h[8:1],,6,,8,,
{8}7-4[8:1],,2-5[8:1]/7,1,7<4[8:1]/2,8,2/7,1,
{16}1/7,2,3h[8:1],,7,5,6,6,2,4,3,3,{32}A8,A7,A6,A5h[32:5],,,,,
{8}Cf,,2-5[8:1],5-3-8[4:1],2,8,7-3[8:1],6,
{8}7-5[8:1],1,7,{16}2,3,4h[8:1]/8-4-2[4:1],7,6h[8:1],,8,,7,,
{8}8-4[8:1],,8-6[8:1],1-5[8:1],8-4[8:1],1-3[8:1],8,1,
{16}7,6,5h[8:1]/1,,2,4,3,4,1,8,5,6,{32}2,3,4,5,6,7,8,1,
{8}2b/6b,,1-7<6[8:1],5,4/1-3<4[8:1],5,1/6,7,
{16}8v3[8:1],7,6h[8:1],,8,,4,5,6-2[8:1],7,8p4[8:1],,6,,8,,
{8}1-3-6[4:1],,6-4-1[4:1],7,1-5-3[4:1],8,6,7,
{8}8<5[8:1],1/7,8,{24}1,2,3,{8}4bh[4:1],E8,B2,E6,
{8}1b-5[8:1],7-3[8:1],1,7,{16}2b,,6,5b/7b,,3,2b/4b,,
,,1b/8b,,7,5,6,5,8-4-6[4:1],1,7,2,8b,,,,
{8}3v8[8:1],2-5[8:1],3,2,1h[8:1],{16}E5,E4,E3,E2,7bh[4:1],,,,
{32}1x,2,3,,5x,6,7,,1x,2,3,,7x,6,5,4,3,2,1,8,7/3,4,5,6,7,8,1,2,
{1}3b/Ch[1:6],1>4[2:1],5>2[2:1],1q7[2:1],8<5[2:1],4<7[2:1],
{6}8h[6:1],2h[6:1],4h[6:1],1h[6:1],7h[6:1],5h[6:1],
6h[6:1],8h[6:1],4h[6:1],3h[6:1],1h[6:1],5h[6:1],
{1}8b-5[4:7]b*z4[4:7]b,
E
