&title=Montagem Miau - Ay mi gatito miau miau
&artist=我
&first=0.03
&des=小茂密 谱师测谱的时候惊讶地发现这里面任何一个配置它自己都打不上(悲
&lv_5=喵
&lv_7=15?
&inote_5=
&inote_7=(132)
{1},1-5-7-1[2:1]/3-7-5-3[2:1],
{12}A2/B2,A1/B1,A8/B8,A7/B7,A6/B6,A5/B5,A4/B4,A3/B3,6hx[1:1],
{4}2xv1v2v3v2[4:3],,,,,
{16}6h[16:3]/1,,7,5h[16:3],4-1-3[8:1]/4?-7-5[8:1],,,,4xv1^3[8:1]/4?v7^5[8:1],,,,4x,,,,
{16}6h[16:3]/1,,7,5h[16:3],4-1-3[8:1]/4?-7-5[8:1],,,,4xv1^3[8:1]/4?v7^5[8:1],,,,4x,,,,
{16}3h[16:3]/8,,2,4h[16:3],5-8-6[8:1]/5?-2-4[8:1],,,,5xv8^6[8:1]/5?v2^4[8:1],,,,5x,,,,
{16}3h[16:3]/8,,2,4h[16:3],5-8-6[8:1]/5?-2-4[8:1],,,,5xv8^6[8:1]/5?v2^4[8:1],,,,5x,,,,
{16}7x/3x,,5hx[16:1],,4^2-5[8:1]/6^8-5[8:1],,5,,4x-2v8-6[4:1]/6x-8v2-4[4:1],,,,4x/6x,,,,
{16},,5hx[16:1],,4^2-5[8:1]/6^8-5[8:1],,5,,4x-2v8-6[4:1]/6x-8v2-4[4:1],,,,4x/6x,,,,
{16},,4hx[16:1],,5^7-4[8:1]/3^1-4[8:1],,4,,5x-7v1-3[4:1]/3x-1v7-5[4:1],,,,5x/3x,,,,
{16},,4hx[16:1],,5^7-4[8:1]/3^1-4[8:1],,4,,5x-7v1-3[4:1]/3x-1v7-5[4:1],,,,5x/3x,,,,
A5f/A3f,,,,,,,,
{8}Ch[2:1],B7f,B8f,B1f,B2f,,,,Ch[2:1],B7f,B8f,,
{24}B2f,,3h[128:1],,4h[128:1],,5,,,6h[128:1],,,B2f/Ch[2:1],,3h[128:1],B7f,4h[128:1],,5/B8f,,,6h[128:1],,,B2f,,3h[128:1],,4h[128:1],,5,,,6h[128:1],,,
{4}1b,1b,
{24}1b,3,4,5,,,1b,4,5,6,,,1b,5,6,7,,,1b,6,7,8x,8bx,,
{24}5b,7h[128:1]`4,8h[128:1],1h[128:1],,,5b,8h[128:1]`4,1h[128:1],2h[128:1],,,5b,1h[128:1]`6,2h[128:1],3h[128:1],,,5b,2h[128:1]`6,3h[128:1],4x,4bx,,
{24}1b/B1,3`8,4,5,,,1b/B1,4`8,5,6,,,1b/B1,5`2,6,7,,,1b/B1,6`2,7,8x,8bx,,
{24}5b`B5,7h[128:1]`4,8h[128:1],1h[128:1],,,5b`B5,8h[128:1]`4,1h[128:1],2h[128:1],,,5b`B5,1h[128:1]`6,2h[128:1],3h[128:1],,,5b`B5,2h[128:1]`6,3h[128:1],4x,4bx,,
{24}1bv2[8:1]`B1,3,4,5,,,1bv3[8:1]`B1,4,5,6,,,1bv4[8:1]`B1,5,6,7,,,1b`B1,6,7,8x,8bx,,
{24}5bv6[8:1]`B5,7h[128:1],8h[128:1],1h[128:1],,,5bv7[8:1]`B5,8h[128:1],1h[128:1],2h[128:1],,,5bv8[8:1]`B5,1h[128:1],2h[128:1],3h[128:1],,,5b`B5,2h[128:1],3h[128:1],4x,4bx,,
{24}4b/3b,5/2,6/1,7/8,,,5b/4b,6/3,7/2,8/1,,,6b/5b,7/4,8/3,1/2,,,7b/6b,8/5,1/4,2x/3x,2x/3x,,
{24}8b/7b,1x/6x,2x/5x,3x/4x,,,1b/8b,2x/7x,3x/6x,4x/5x,,,2b/1b,3bx/8bx,4bx/7bx,5bx/6bx,,,3b/2b,4bx/1bx,5bx/8bx,6bx/7bx,6bx/7bx,,
{12}7bx-3b[5.46##0.3],1,8b,1,8b,1,8b,1,8b,1,8b,1,7bx<3b[3.64##0.3],1,8b,1,8b,1,8b,1,8b,1,8b,1,7bxw3b[1.82##0.3],1b,8b,1b,8b,1b,8b,1b,8b,1b,8b,1b,7b`E8`B7`E7`B8`B6`B1`C`B5`B2`B4`B3`E3`E4`A3,,,,,,,,,,,,
{4}1,2,3,4b,1`B1/5b,2`B2/6b,3`B3/7b,4`B4/8b,1h[8:1]/5hb[16:1],2h[8:1]/6hb[16:1],3h[8:1]/7hb[16:1],4h[8:1]/8hb[2:1],6h[8:7],,1b,2b-6b[8:1],
{16}2b^7[8:1],,5,5,2b-5^3[8:1],,3x,,8b-5^7[8:1]/2b,,,,8b-2-4[8:1],,,,
{16}8b/5bp7[8:1],,7,7,5b/6b-3-5[8:1],,8,,6b-1-7[8:1],,,,6b/2bv4[8:1],,,,2bv8[8:1],,6,6,2b/7bp3^2[8:1],,4,,1bq5^6[8:1]/7b,,,,1b,,,,
{16}7b^2[8:1],,4,4,7b-4^6[8:1],,6x,,1b-4^2[8:1]/7b,,,,1b-7-5[8:1],,,,
{16}1b/4bq2[8:1],,2,2,4b/3b-6-4[8:1],,1,,3b-8-2[8:1],,,,3b/7bv5[8:1],,,,7bv1[8:1],,3,3,7b/2bq6^7[8:1],,5,,8bp4^3[8:1]/2b,,,,8b-6b[8:1]/8?-4b[8:1],,,,8b-5b[8:1]/8?-3b[8:1],,,,8b-2b[8:1]/8?-4b[8:1],,,,8bw4b[8:1],,,,8b,,,,5b-8b[8:1]/4b-1b[8:1],,3,6,4b-8b[8:1]/5b-7b[8:1],,,,5b-1b[8:1]/4b-2b[8:1],,,,5b/4b,
E
