&title=KILLER B
&artist=梅とら
&first=0
&des=マリア=S=レオンブルク
&wholebpm=130
&des_6=マリア=S=レオンブルク
&lv_6=13+
&inote_6=(130)
{1},
{16},,,,,,,,,,,,,,1,1,
{16}4h[4:3],,,,,,,,,,,,2h[8:1],,6h[8:1],,
{16}5h[4:3],,,,,,,,,,,,7h[8:1],,3,,
{1}8b-5[2:1]/4bv1[2:1],
{1}3bV58[2:1]/8b-2v3[2:1],
{16}3h[1:1]/7,,,E5,,,E7,,,E1,,,1,,1,,
{16}1h[4:3],,,E3,,,E5,,,E7,,,8,,1,,
{16}6h[1:1]/2,,,E5,,,E3,,,E1,,,8,,8,,
{16}8h[4:3],,,E7,,,E5,,,E3,,,1,,8,,
{16}5h[16:3]/7,,,6,5,,7,,5,6,6,,3,4,2,5,
{16}4,,,6,5,,7,,5,,7,,8/2,,3,,
{16}4h[16:3]/2,,,3,4,,2,,4,3,3,,6,5,7,4,
{16}5,,,3,6,5,5,7,{32}4,3,2,1,8,7,6,5,4,,8,,3,,7,,
{16}2-4[32:3],,,5,5-1[8:1],,6,,5,7,7,,1,8,3,4,
{16}4-6[32:3],,,8,8-4[8:1],,1,,,3,,,2,2,6,5,
{16}7-5[32:3],,,4,4-8[8:1],,3,,4,2,2,,8,1,6,5,
{8}5V37[4:1],6,7>5[32:10],6h[8:3],,,,7,
{16}6/5,,4h[4:1],5,,,5,,6,,6h[4:1],5,,,5,,
{8}5v2[8:1],5,6,6,5-8[8:1],5,1,1,
{16}7h[16:3],,,5,,,E4/A3,,,5,5,,3,5,4,6,
{16}5h[16:3],,,3h[16:3],,,4h[16:3],,,6,,,2,4,3,5,
{16}4-2[8:1],,5,6,4,,5,,5-7[8:1],,4,3,5,,4,,
{16}2-4[8:1],,1,8,2,,{8}5,6pp5[32:9],6,3,3,
{16}2h[16:3],,,4,,,E6/A6,,,2,2,,6,4,5,3,
{16}4h[16:3],,,2,,7,5,6,3,4,,2,1,8,7,6,
{1}5x-7-1-3[1:2]/4x,
{1}B4/E5,3-5^6v4[4:6],E1/B1,
{4}1h[1:1],E3,C,7,
{4}8h[4:3],6,4,2,
{8}1h[8:1]/7,7,7h[8:1]/5,5,5h[8:1]/4,4,4h[8:1]/2,2,
{32}1,,8,,1,,8,,2,3,4,5,8,1,2,3,C,,,,{8}8/1,7V51[16:3]/3,6/5,
{8}7b/4b,2-4[8:1],4,2/5-1[8:1],1,7qq2[4:1]/5,6,7/8,
{8},3,8V62[32:5]/2,7,1-5-3[32:5],3,8,6,
{8}2,5h[8:1],8-2[8:1],7-3[8:1],8-4[8:1],7-5[8:1],8,7,
{16}4h[16:3],,,2,4,,{48}A2f/D2,A1,D1,A8,D8,A7,D7,A6,D6,A5,,,{16}1,,2V48[16:3]/6,,3/4,,
{8}2b/5b,7-5[8:1],5,7/4-8[8:1],8,2pp7[4:1]/4,3,2/1,
{8},6,1V37[32:5]/7,2,8-4-6[32:5],6,1,3,
{8}5x/2^7[8:1],1,4-8b[8:1],3,1^6[8:1],2,5-1[8:1],{16}4,,
{8}2h,3h,4h,5h,{48}6hb[8:4]/B2f,Chf[48:23],,,,,,,,,,,,,,,,,,,,,,,
{1},
{8},4h[8:1],,4h[8:1],,4h[8:1],,4h[8:1],
{8},8h[8:1],,8h[8:1],,8h[8:1],,8h[8:1],
{32},,,,4h[8:1],,,,{128}E7f/A7/A6/D7,B6,E6,D6,A5,B5,D5,,,,,,,,,,,,,,,,,,,,,,,,,,{32}E3,B3,B4,E5,E1,B8,B7,E7,Ch[16:1],,,,,,,,
{16}4hx[8:1]/5,,6,5,8,2,4,3h[8:1],,4,3,6,1,8,2,,
{16}5h[8:1]/4,,7,5,8,5,2,4h[8:1],,1,1h[8:1],,3x,1x,7x,5x,
{16}4hx[8:1],,3,4,1,7,5,6h[8:1],,5,6,3,8,1,7,,
{16}4h[8:1]/5,,2,4,1,5,7h[8:1],,2,2,4,3,7,7,5,6,
{16}1hx[8:1]/7x,,8,1,6,5,7,4h[8:1],,2,4,8,5,6,4,,
{48}1/8h[8:1],,,,,,6,,,,,,1h[8:1]/8,,,,,,3,,,,,,8b,,,,6b,,,,7b,,,,1b,,,,3b,,,,2b,,,,
{16}8hx[8:1]/1x,,1,8,3,4,2,5h[8:1],,7,5,1,4,3,5,,
{32}2,,1,,3,,8,,4,,7,,5,,6,,4,3,2,1,8,7,6,5,4,,8,,3,,7,,
{16}2,2,6,6,8,8,4,4,C,,6/2,,7/3,,8/4,,
{8}1-5[32:3],2/6,{48}1b/5b,Cf,,,,,{8}8^3[8:1],7,{8}8/5qq1[4:1],4,5/6,
{8},7,2V48[32:5]/8,3,1-5-7[32:5]/2,7,1/2,3,
{8}8,5h[8:1],1-7[8:1],3-6[8:1],1-5[8:1],3-7[8:1],1,3,
{16}5h[16:3],,,6,5,,{48}D7f/A7,D8,A8,D1,A1,D2,A2,D3,A3,D4,A4,,{16}8,,1V37[16:3]/7,,3/4,,
{8}1b/5b,4-8[8:1],5,4/1^6[8:1],2,1/4pp8[4:1],5,4/3,
{8},2,7V51[32:5]/1,6,8-4-2[32:5]/7,2,8/7,6,
{16}5/1h[8:1],,4,3,4,,6h[8:1]/2,,4,5,4,,7/3h[8:1],,6,5,
{16}6,,3,2/4,,6,5/7,,1,8,3,8,1,7,8,7,
{8}6b/2bV48b[16:3],3,6/2,5^2b[8:1],6,5/1pp5b[4:1],8,6/1,
{8},7,6V84b[32:5]/4,7,5-1-3b[32:5]/6,3,5/6,7,
{8}4/6^1[8:1],7,3/6-2b[8:1],5,6/8^3[8:1],7,8/4-8[8:1],{16}5,5,
{8}4,3x,7/6,1/2,{48}A8f/4h[8:3],B8,C,B4,,,,,,,,,,,,,,,,,,,,,
{16}8h[16:3]/2,,,3,4,,1h[8:1],,4,3,8,,3,4,1,6,
{16}5h[16:3],,,6,5,,1,,8/2,,6,,5/7-4[8:1],,8,,
{16}1h[16:3]/7,,,6,5,,8h[8:1],,5,6,1,,6,5,8,3,
{16}4h[16:3],,,2,4,,8,,7,7,5,5,4,4,2,2,
{16}6^8[8:1],,,1,1p5[8:1],,2,,1,3,3,,5,4,7,8,
{16}8^3[8:1],,,4,4p8[8:1],,5,,,7,,,6,6,2,1,
{16}3^1[8:1],,,8,8q4[8:1],,7,,8,6,6
,,4,5,2,8,
{16}3,4,7,6,2,3,8,7,,1,8/2,,5/6,,3h[8:1]/2,,
{16}8h[8:3],,,4h[16:3],,,{96},D1/D5,A1,A5,D2,D6,A2,A6,D3,D7,A3,A7,{2},
E
