&title=Aurora
&artist=Lime
&first=0.02
&des=Pure Rotifera
&lv_4=12
&lv_5=14
&inote_4=(178){4},,,,{1}6p3[8:11],
,3q6[8:11],
,7p4[8:11],
,2q5[8:11],
{4},,,,7,
{8}6/4,6/4h[8:3],,5,{4}5,
E
&inote_5=(178){4},,,,{1}5p3[16:23],
2<7[8:3],
4q6[16:23],
7>2[8:3],
5p4[8:11],
2<7[8:3],
4q5[4:5],
7>2[8:3],
{8}2,2>5[16:3],,2/1,,8,{4}7,
{8}7-4[8:1],8-3[8:1],7,8,,6,{4}4/7,
{8}7,7<4[16:3],,7/8,,1,{4}2,
{8}2-5[8:1],1-6[8:1],2,1,,3,{4}5/2,
1/2,3/4,5/6,7/8,
{8}1/2,3,7/8,6,3/4,2,5/6,7,
{16}4,5,4,5,3,6,3,6,2,7,2,7,1,8,1,8,
{32}1,2,3,4,5,6,7,8,1qq5[16:5],2,3,4,5,6,7,8,{2}1,
{8}8/4,{16}6,5,{8}7,7-5[8:1],3-1[8:1],7-3[8:1],3>3[16:7],7,
{16},,,,,,,,2x,1x,8x,7x,6x,5x,4x,3x,
{4}2x-6[8:1],{8}2/1,8-4[8:1],,8/7,6-2[8:1],5h[2:1],
6x<4[8:3],{16},,,,,,,,5x,6x,7x,8x,1x,2x,
{4}3-7[8:1],{8}3,8>3[8:1],,8,5-8[16:3]*-2[16:3],5,
{16},,,,,,3x,4x,7,6,5,4,1,2,3,4,
{8}5/7,{16}8,1,{8}8,2/4,{16}1,8,{8}1,{16}8,7,6,5,
{4}4/2,{8}1/8z4[16:5],7/5,,,,,1/5,
{16}3,4,{8}2,2-4[8:1],6-8[8:1],2-6[8:1],6x<6[16:7],2,
{16},,,,,,,,7,8,1,2,3,4,5,6,
{4}7-3[8:1],{8}7/8,1-5[8:1],,1/2,3-7[8:1],4h[2:1],
3x>5[8:3],{16},,,,,,,,4,3,2,1,8,7,
{4}6-2[8:1],{8}6,4<7[16:3],,4,1-6[16:3]*-4[16:3],1,
{16},,,,,,7x,8x,3,2,1,8,5,6,7,8,
{8}5/1<2[8:5],,,5h[1:1],,,,,1,
1,1,{32}1,8x/4x,7x/3x,6x/2x,{8}5x/1x,1x/5x,{32}1-5[8:1],2,3,4,5,6,7,8,
{8}1/6x,6-2[8:1],,6/4x,{4}4-8<6-2>4[1:1],{8}1x/4,1h[8:7],
,,,,,,,,7x/4,
4/7-3[8:1],,7/5x,{4}5-1[8:1],5x<8p2>5[4:3],
,,,1-5[8:1],
{8}1/4x,4-8[8:1],,4/5x,{4}5-1-3-7-5[1:1],{8}5/8x,8h[8:7],
,,,,,,,,2x/5,
5/2-6[8:1],,2/4x,{4}4x-8[8:1],4>1q7<4[4:3],
{8},,,,,,,,7x-5>4[8:1],
4x-7[8:1],7x-2[8:1],2x<1-7[8:1],{4}3x-7[8:1],3x>5[8:3],
{16},,,,3x,2,1,8,4x,3,2,1,5,4,3,2,
{8}1x-4[8:1],4x-1[8:1],1x-6[8:1],6x-1[8:1],{4}5x<4[16:11],5,
{16},,,,,,,,,,5,4,6,3,{8}7,
2-4<5[8:1],5-2[8:1],2-7[8:1],7>8-2[8:1],{4}6-2[8:1],6x<4[8:3],
{16},,,,6x,7,8,1,5x,6,7,8,4,5,6,7,
{8}8h[4:1]/4h[4:1],,,2h[4:1]/6h[4:1],,,{4}5/1h[1:1],
{8}5,5,5,6,7,8,{32}8,7,6,5,4,3,2,1,
{1}8bv6q2q6-2v4-8[12:85],
4h,
,6h,
,8h,
,2h,
{12}1,8,2,7,3,6,4,5,6,7,8,1h[6:5],
8,7,6,5,4,3,{2}2,
{12}8,1,7,2,6,3,5,4,3,2,1,8h[6:5],
1,2,3,4,5,6,{2}7,
{1}4w8[2:3],
,{48}E1,
C,{24}E5,{1},{4},,,{16},{24},{16}Ch[16:1],
,,,,,,,,{2}5xw1[8:1],
5xw1[8:1]*w1[8:1],5xw1b[8:1],
{32}1x-5[8:1],2x/8x,3x/7x,4x/6x,{8}5x,,,7-5[8:1],{16}1,2,{8}7-1[8:1],{16}2,3,
{8}7-3[8:1],{16}3,4,{8}7,{16}1,8,7,6,5/1,4/8,7/3,6/2,{8}1-4[8:1]/5-8[8:1],
,1/5,,7<4[8:1],,7/3,2p8[4:1],2bxh[4:1],
,,,4h[8:1],8h[8:1],2h[8:1],{4}6h[8:1],
{16}4/3h[4:1],5,6,7,{8}8,{16}5/4h[4:1],6,7,8,{8}1,{16}6/5h[4:1],7,{8}8v5[8:1]*v3[8:1],
,8,,6-2[8:1]/2-5[8:1],5/1,2<7[8:1]/6>3[8:1],,6/2x-6[8:1],
,2,,3-7[8:1]/7-4[8:1],4/8,7>2[8:1]/3<6[8:1],,3/7x-3[8:1],
,7/4-8[8:1],,4<7[8:1]*>1[8:1],,4,{16},,,,7,
8,6,4,5,3,1,2,8,4,6,1,5,3,8,1,
{4}2x-5[8:1]/7x-4[8:1],2/7,{8}1-5[8:1]/8-4[8:1],2/7,{4}1/8,
{32}7,6,5,4,3,2,1,8,{4}7-3[8:1],7b,1w5[8:1]*w5[8:1],
1b,8w4b[8:1],{2}8b,
{8}2-4[8:1],{16}8,7,{8}2-8[8:1],{16}7,6,{8}2-6[8:1],{16}6,5,{8}2,{16}8,1,
2,3,4/8,5/1,2/6,3/7,{8}8-5[8:1]/4-1[8:1],,8/4,,3/6,
{16}4,5,4,5,3,6,4,5,2,7,4,5,{8}1,{32}1,2,{16}3,
5,4,5,4,6,3,5,4,7,2,5,4,{32}8-4b[8:1],7,6,5,4,3,2,1,
{8}8/3x,3-7b[8:1],,3/5x,{4}5-1-3-7-5b[1:1],{8}8x/5,8h[8:7],
,,,,,,,,2x/5,
5/2-6b[8:1],,2/4x,{4}4-8b[8:1],4>1q7<4b[4:3],
,,,8-4b[8:1],
{8}8/5,5-1b[8:1],,5/4,{4}4-8<6-2>4b[1:1],{8}4/1,1h[8:7],
,,,,,,,,7x/4,
4/7-3b[8:1],,7/5x,{4}5-1b[8:1],5<8p2>5b[4:3],
{8},,,,,,,,2>5b[8:1],
5-2b[8:1],2-7b[8:1],7>2b[8:1],{4}6-2b[8:1],6x<4b[8:3],
{16},,,,6x,7,8,1,5x,6,7,8,4,5,6,7,
{8}8-5b[8:1],5-8b[8:1],8-3b[8:1],3-8b[8:1],{4}4>5b[16:11],4,
{16},,,,,,,,,,4,5,3,6,{8}2,
7<4b[8:1],4-7b[8:1],7-2b[8:1],2<7b[8:1],{4}3-7b[8:1],3x>5b[8:3],
{16},,,,3x,2,1,8,4x,3,2,1,5,4,3,2,
{8}1h[4:1]/5h[4:1],,,7h[4:1]/3h[4:1],,,{4}4/8h[1:1],
{8}4,4,4,3,2,1,{32}1,2,3,4,5,6,7,8,
{1}5b/1b<2[16:27]*>8[16:27],
E
