&title=Rabbit in The Black Room
&artist=Rabbit House
&first=1
&des=Jun in The Dark World
&clock_count=4
&lv_5=14+
&inote_5=(270)
{16}8/1h[2:1],,,,,,,,8,,,,1,2,3,,
8,,,,,,,,38,,,,,,,,
8/4h[2:1],,,,,,,,8,,,,4,3,2,,
8,,,,,,,,28,,,,,,,,
1/8h[2:1],,,,,,,,1,,,,8,7,6,,
1,,,,,,,,61,,,,,,,,
1/5h[2:1],,,,,,,,1,,,,5,6,7,,
1,,,,,,,,71,,,,,,,,
1h[4:1],,,,7h[4:1],,,,5h[4:1],,,,6<1[4:1],5,7,5,
6,,,,4,,,,3,,,,2,,,,
8h[4:1],,,,2h[4:1],,,,4h[4:1],,,,3>8[4:1],4,2,4,
3,,,,5,,,,6,,,,7,,,,
1h[4:1],,,,7h[4:1],,,,5h[4:1],,,,6<1[4:1],5,7,5,
6,,,,4,,,,3,,,,2,,,,
{24}1x,2x,3x,4x,5x,6x,7x,8x,1x,2x,3x,4x,5x,6x,7x,8x,1x,2x,3x,4x,5x,6x,7x,8x,
{32}1x/5x,4x,3x,2x,1x,8x,7x,6x,5x,4x,3x,2x,1x,8x,7x,6x,5x,4x,3x,2x,1x,8x,7x,6x,5xh[4:1],,,,,,,,
{8}4,,6-8[8:1],5,6,,1h[4:1],,
{16}8,7,6,5,{8}4<8[4:1],,4,,4,3,
2-4[8:1],1,2,,7-5[8:1],8,7,,
2-4[8:1],1,2,,7-5[8:1],8,7,8>2[8:1],
,8,7>3[4:1],,7,,4,4h[4:1],
,7,,3/6,2/5,3/6,4/7,3h[4:1]/6,
,7,,2,3,4,3,2,
1,2,3,2,1,8,7,6,
{8}5,,3-1[8:1],4,3,,8h[4:1],,
{16}1,2,3,4,{8}5>1[4:1],,5,,5,6,
7-5[8:1],8,7,,2-4[8:1],1,2,,
7-5[8:1],8,7,,2-4[8:1],1,2,1<7[8:1],
,1,2<6[4:1],,2,,5,5h[4:1],
,2,,6/3,7/4,6/3,5/2,6h[4:1]/3,
,2,,7,6,5,6,7,
8,7h[4:1],,8,,1,2,3,
{16}3/4b,,,,3/4b,,,,4b,,3h[4:1],,,,4b,,
,,4b,,3h[4:1],,,,4b,,,,,,,,
{8}5/1b-3[8:1],,51,,5/8b-4[8:1],,58,,
5/1b-3[8:1],,51,,5/8b-4[8:1],,58,,
{16}6/5b,,,,6/5b,,,,5b,,6h[4:1],,,,5b,,
,,5b,,6h[4:1],,,,5b,,,,,,,,
{8}4/8b-6[8:1],,48,,4/1b-5[8:1],,41,,
4/8b-6[8:1],,48,,4x/1b-5[8:1],4x,1/4x,,
2-4[8:1],2,6-8[8:1],6,2-4[8:1],2,6-8[8:1],6,
1-3[8:1],1,5-7[8:1],5,1-3[8:1],1,5-7[8:1],5,
2>4[8:1],2,6<8[8:1],6,2>4[8:1],2,6<8[8:1],6,
1>3[8:1],1,5<7[8:1],5,1>3[8:1],1,5<7[8:1],5,
2,2,34,34,5,5,46,46,
7,7,65,65,4,4,53,53,
2h[16:1],2h[16:1],3h[16:1]/5h[16:1],3h[16:1]/5h[16:1],4h[16:1],4h[16:1],5h[16:1]/6h[16:1],5h[16:1]/6h[16:1],
47,47,36,36,25,25,36,36,
Cf,,,,E3/E7,,,,
E1/E5/C,,,,E2/E4/E6/E8,,,,
{8}Ch[1:7]/2b>5[1:1],,,,,,,,
,,,,,,,,5x-7[3:1],,,,,,,,7xp2[3:1],,,,,,,,2bp5[1:1],,,,,,,,,,,,,,,,5xq2[3:1],,,,,,,,2x<5[3:1],,,,,,,,
34,,2,,4h[8:3],2,,2,
34,,2,,4h[8:3],2,,2,
34,,2,,4h[8:3],1,,1,
34,,2,,4h[8:3],2,,2,
54,,6,,4h[8:3],6,,6,
54,,6,,4h[8:3],6,,6,
54,,6,,4h[8:3],7,,7,
54,,6,,4h[8:3],6,,6,
{16}34,,,,2,,,,4h[8:3],,1,,,,1,,
34,,,,2,,,,4h[8:3],,1,,,,1,2,
34,,,,2,,,,4h[8:3],,1,,,,1,,
34,,,,2,,,,4h[8:3],,1,,,,1,2,
34,,,,5,,,,3h[8:3],,6,,,,6,,
34,,,,5,,,,3h[8:3],,6,,,,6,5,
34,,,,5,,,,3h[8:3],,6,,,,6,,
34,,,,5,,,,3h[8:3],,6,,,,6,5,
{2}4/E3,E2,
E1,E8,
E7,E6,
E5,E4,
E3,E2,
E1,E8,
{8}E7,B6,B5,E5,E1,B1,B2,E3,
E6,B6,B7,E8,E4,B3,B2,E2,
6,5,6,5,6h[2:1],,4,,
3,,2,,1/B4,,2,,
3,4,3,4,3h[2:1],,5,,
6,,7,,8/B5,,7,,
3,4,3,4,2,4,2,4,
3,,2,,3,,4,,
{24}5,6,7,8,1,2,3,4,5,6,7,8,1,2,3,4,5,6,7,8,1,2,3,4,
{32}5/1,8,7,6,5,4,3,2,1,8,7,6,5,4,3,2,1,8,7,6,5,4,3,2,1,8,7,6,5,4,3,2,
{8}1-5[8:1],1,7-4[8:1],7,8>3[8:1],,8,,
7-5[8:1],,8-4[8:1],,1-5[8:1],,2-4[8:1],,
8-4[8:1],8,2-5[8:1],2,1<6[8:1],,1,,
2-4[8:1],,1-5[8:1],,8-4[8:1],,7-5[8:1],,
1-5[8:1],1,7-4[8:1],7,2-5[8:1],2,8-4[8:1],8,
2>5[8:1],,8-4[8:1],,1-5[8:1],,7<4[8:1],,
2,1,8,7,2,1,8,7,
3,4,5,6,3,4,5,6,
1-5[8:1],1,7-4[8:1],7,8>3[8:1],,8,,
7b-5[8:1],,7/8b-4[8:1],,8/1b-5[8:1],,1/2b-4[8:1],,
8-4[8:1],8,2-5[8:1],2,1<6[8:1],,1,,
2b-4[8:1],,2/1b-5[8:1],,1/8b-4[8:1],,8/7b-5[8:1],,
3-7[8:1],3,5-8[8:1],5,1-4[8:1],1,7-3[8:1],7,
E6/B5,,E2/B2,,B8/E8,,E4/B4,,
6-2[8:1],6,4-1[8:1],4,8-5[8:1],8,2-6[8:1],2,4-7[8:1],4,1-5[8:1],1,8-4[8:1],8,2-5[8:1],2,
8b,8,8,8b/4,8,8,8b/4,8,
8,8b/4,8,8,8b/4b,3b/7b,2b/6b,1b/5b,
48,48,48,48,8,8,8,8,
6,6,6,6,37,37,26,26,
1b/5h[4:1],1,1,1b/5h[4:1],1,1,1b/5h[4:1],1,
1,1b/5h[4:1],1,1,1b/5b,6b/2b,7b/3b,8b/4b,
51,51,51,51,1,1,1,1,
3,3,3,3,62,62,74,74,
5b/6b,7,7,5b/6b,7,7,5b/6b,7,
7,5b/6b,7,7,5b/6b,,,{16}6,5,
{8}4b/3b,2,2,4b/3b,2,2,4b/3b,2,
2,4b/3b,2,2,4b/3b,,,{16}2,1,
{8}8h[4:3]/7,7,7,7b,7,7,7b,{16}6,5,
{8}4h[4:3]/3,3,3,3b,3,3,3b,{16}2,1,
8h[4:1]/7b,,,,,,6,5,4h[4:1]/3b,,,,,,2,1,
8h[4:1]/7b,,,,,,6,5,4h[4:1]/3b,,,,,,2,1,
8,,6,5,4,,2,1,8,,6,5,4,,2,1,
{8}48,15,26,37,{16}8,1,2,3,{24}48,15,26,37,48,15,
{2}E2,E3,E4,E5,E6,E7,E8,E1,
{16}1h[4:1],,,,7h[4:1],,,,5h[4:1],,,,6<1[4:1],5,7,5,
6,,,,4,,,,3,,,,2,,,,
8h[4:1],,,,2h[4:1],,,,4h[4:1],,,,3>8[4:1],4,2,4,
3,,,,5,,,,6,,,,7,,,,
1h[4:1],,,,7h[4:1],,,,5h[4:1],,,,6<1[4:1],5,7,5,
6,,,,4,,,,3,,,,2,,,,
5h[4:1],,,,3h[4:1],,,,1h[4:1],,,,2>5[4:1],1,3,1,
2,,,,8,,,,7,,,,6,,,,
1h[4:1]/5,,,,7h[4:1],,,,5h[4:1],,,,6v1[4:1],5,7,5,
6,,,,4,,,,3/B5,,,,2,,,,
8h[4:1]/4,,,,2h[4:1],,,,4h[4:1],,,,3v8[4:1],4,2,4,
3,,,,5,,,,6/B4,,,,7,,,,
1h[4:1]/5,,,,7h[4:1],,,,5h[4:1],,,,6v1[4:1],5,7,5,
6,,,,4,,,,3/B5,,,,2,,,,
8h[4:1]/4,,,,2h[4:1],,,,4h[4:1],,,,3,4,2,4,
3,,,,5,,,,6,,1,,7,,1,,
{32}6b,5,4,3-6[1:2],
