&title=MURASAME
&artist=Hommarju
&first=0
&des=MMFC9
&lv_5=13+
&inote_5=(140)
{1},
{16}6h[8:1]/5h[8:1],,,3h[8:1]/4h[8:1],,,1/8v7-5[16:3],,8/1h[8:2],,,,,,,,
{16}3h[8:1]/4h[8:1],,,6h[8:1]/5h[8:1],,,8/1v2-4[16:3],,1/8h[8:2],,,,,,,,
{16}7h[8:1]/5h[8:1],,,2h[8:1]/4h[8:1],,,1/8z4[16:3],,8/7h[8:2],,,,,,,,
{16}2h[8:1]/4h[8:1],,,7h[8:1]/5h[8:1],,,8/1s5[16:3],,1/2h[8:2],,,,,,,,
{4}5xh[4:7]/1x>8[4:6],,,,,,,,
{12}1x,2,3,5x,6,7,
{16}1x,8,1,8,1,8,1,8,
{32}1x,2,3,4,5,6,7,8,7x/1x,2,3,4,5,6,7,8,6x/1x,2,3,4,5,6,7,8,1b-5[8:1]/5x,,,,,,,,
{16}1b/8b,,7,7,4,6,4,,5,5,3,4,2-4[32:3],5,5h[8:1],,
{16}2x,,7,7,5,6,4,,2/5xh[8:1],,3,7/4xh[8:1],,6,2/5xh[8:1],,
{32}1xbh[64:1],E2,E3,,{16}6,6,4,5,4,,7,1,8,2,7-5[32:3],3,3h[8:1],,
{16}7x,,3,3,5,4,6,,7/4xh[8:1],,6,2/5xh[8:1],,3,7/4xh[8:1],,
{32}8xbh[64:1],E8,E7,,{16}3,3,5,4,6h[8:1],,5,5,7,4,6,3,5h[8:1],,4,4,6,5,6,4,7,,
{16}2/5xh[8:1],,3,7/4xh[8:1],,6,2/5xh[8:1],,
{32}1xbh[64:1],E2,E3,,
{16}7,7,4,6,3h[8:1],,5,4,5,3,6,4,7,,
{16}5xbh[8:1]/6h[8:1],,,8xhb[8:1]/2h[8:1],,,3xhb[8:1]/4h[8:1],,,7xhb[8:1]/1h[8:1],,,2/8-3[8:1],,3,,
{16}8b/4b,,4,4,6,6,2,2,7,5,6,5,6,4,5,3,
{24}5x,6,7,1x,2,3,6x,7,8,2x,3,4,
{16}5/7xh[8:1],,4,1/3xh[8:1],,8,4/7xh[8:1],,
{32}1xbh[64:1],E2,E3,,{16}7,5,6,5,6h[8:1],,3,5,3,4,2,4,2h[8:1],,
{16}6,5,6,4,7,5,7,,
{16}8/2xh[8:1],,7,4/6xh[8:1],,3,5/2xh[8:1],,
{32}8xbh[64:1],E8,E7,,{16}3,4,2,5,3,5,4,6,3,6,4,5,3,5,
{16}2,2,5,4,7,7,3,,2/5xh[8:1],,3,7/4xh[8:1],,6,2/5xh[8:1],,
{32}1xbh[64:1],E2,E3,,{16}5,4,6,5,7,5,6,4,5,3,4,2,5,1,
{16}6xh[16:1],4,7,3xh[16:1],5,2,7xh[16:1],1,4,2,5,3,6,4,7,5,
{4}1x>8[4:6],,,,,,,,
{12}1x,2,3,5x,6,7,
{16}1x,8,1,8,1,8,1,8,
{32}1b-5[32:3],2,3,4,5,6,7,8,
{4}C,
{16}6,5,,2,1,,C,,
{16}5b/1b-3[8:1],,,8,1,,7,,6-8[8:1],4,,5,6,,5,,
{16}2-4[8:1],,,1,2,,8,,7/5xh[8:1],,8,3/1xh[8:1],,4,7/5xh[8:1],,
{32}8x-6[8:1],E1,E2,,{16},4,8,,2,,3-1[8:1],5,,4,3,,4,,
{16}7-5[8:1],,,8,7,,1,,2/4xh[8:1],,1,6/8xh[8:1],,5,2/4xh[8:1],,
{32}1x-3[8:1],E1,E8,,{16},5,1,,7,,8-6[8:1],4,,4,8-4[8:1],,5,,
{16}8<5[8:1],,,1,8,,2,,1/5xh[8:1],,3,8/4xh[8:1],,6,1x/5x,,
{16}2xh[8:1]/4xh[8:1],,,7h[8:1]/8h[8:1],,,2h[8:1]/1h[8:1],,,7h[8:1]/5h[8:1],,,2/6,,C,,
{16}2,2,1,3,7,7,8,6,1,5,2,6,3,7,4,8,
{4}5<4[8:5],7,1,,5<4[8:5],7,1,,5<4>5[8:12],8,2,4,{8}5,,4,4,3,,,,
{16}7,5,7,5,7,5,7,5,6,4,6,4,6,4,6,4,
{16}5,3,5,3,5,3,5,3,4,2,4,2,4,2,4,2,
{16}5,1,5,1,6,2,6,2,7,3,7,3,8,4,8,4,
{16}1,1,2,2,3,3,4,4,5,5,6,6,7,7,8,8,
{16}1xh[8:1]/E6/B6,,,7xh[8:1]/E4/B4,,,5xh[8:1]/E2/B2,,3x,3,5,2,6,1,7,,
{16}8xh[8:1]/E4/B3,,,2xh[8:1]/E6/B5,,,4xh[8:1]/E8/B7,,6x,6,4,7,3,8,2,,
{16}5xh[8:1]/E2/B2,,,3xh[8:1]/E8/B8,,,1xh[8:1]/E6/B6,,7x,7,1,6,2,5,3,,
{16}4xh[8:1]/E8/B7,,,6xh[8:1]/E2/B1,,,8xh[8:1]/E4/B3,,2x,2,8,3,7,4,6x,,
{16}3h[64:1],5,4,5,4,5,4,5,2h[64:1],5,4,5,4,5,4,5,
{16}1h[64:1],5,4,5,4,5,4,5,8h[64:1],5,4,5,4,5,4,5,
{16}3x,4,3,6x,5,6,4,5,2x,4,2,7x,5,7,1x,8,
{16}2/7,,3,4,5/2,,7/4,,1b-5[8:1]/Cf,,,,,,,,
{16}7xh[8:1]/4bx,,5,6,3,8,2,4,1,1,6,5,8-5[8:1],3,1,,
{16}8x/4x,,1,1,4,3,6,8,5,2,1,4,5-7[32:3],3,3,,
{32}5x/1x,E6,E7,,{16},2,2-4[32:3],8,1,7,
{32}2x/6x,E3,E4,,{16},7,7-5[32:3],1,8,2,
{32}7x/3x,E7,E6,,{16}2,2,8,3,6,5,8,1,4,3,7,1,1,,
{16}2xh[8:1]/5b,,4,3,6,1,7,5,8,8,3,4,1-4[8:1],6,8,,
{16}1x/5x,,8,8,5,6,3,1,4,7,8,5,4-2[32:3],6,6,,
{32}4x/8x,E4,E3,,{16},7,7-5[32:3],1,8,2,
{32}7x/3x,E7,E6,,{16},2,2,8,1,7,
{16}6h[8:1]/2h[8:1],,,8h[8:1]/4h[8:1],,,7/3,,Cf/1b,,,,,,,,
{48}4x/7bx,E7,E6,,,,,,,5x/1x,E2,E3,,,,,,,4x/8x,B8,C,B4,,,{16}2bx,2,8,3,5,1,6,,
{48}5x/2bx,E3,E4,,,,,,,4x/8x,E8,E7,,,,,,,5x/1x,B1,C,B5,,,{16}7bx,7,1,6,4,8,3,,
{48}4x/7bx,E7,E6,,,,,,,5x/1x,E2,E3,,,,,,,{32}4x/8x,7x,6x,,{16}1b,1,5,2,7,4,8,,
{48}5x/2bx,E3,E4,,,,,,,4x/8x,E8,E7,,,,,,,{32}5x/1bx,2bx,3bx,,{16}8b,8,4,7,2,5,1,,
{16}7b,5,6,1x,4,3,8x,8,2b,4,3,8x,5,6,1x,1,
{16}7b,8,5,3x,4,1,6x,6,2b,1,4,6x,5,8,3x,3,
{16}6x,4,8,2x,4,8,6x,2,7x,1,5,3x,1,5,7x,3,
{16}8bx,,6,5,4/7,,2/5,,1/8,,2,5,3,6,4,7,
{1}5<6<7>8>1>2>3<4[32:16]*<6<7>8>1>2>3<4[32:16],
{32}5x,6,7,8,1,2,3,4,5,6,7,8,1,2,3,4,E5,E6,E7,E8,E1,E2,E3,E4,E5,,,,,,,,
&inote_6=(140)
{1},
{16}6h[8:1]/5h[8:1],,,3h[8:1]/4h[8:1],,,1/8v7-5[16:3],,8/1h[8:2],,,,,,,,
{16}3h[8:1]/4h[8:1],,,6h[8:1]/5h[8:1],,,8/1v2-4[16:3],,1/8h[8:2],,,,,,,,
{16}7h[8:1]/5h[8:1],,,2h[8:1]/4h[8:1],,,1/8z4[16:3],,8/7h[8:2],,,,,,,,
{16}2h[8:1]/4h[8:1],,,7h[8:1]/5h[8:1],,,8/1s5[16:3],,1/2h[8:2],,,,,,,,
{4}5xh[4:7]/1x>8[4:6],,,,,,,,
{12}1x,2,3,5x,6,7,
{16}1x,8,1,8,1,8,1,8,
{32}1x,2,3,4,5,6,7,8,7x/1x,2,3,4,5,6,7,8,6x/1x,2,3,4,5,6,7,8,1b-5[8:1]/5x,,,,,,,,
{16}1b/8b,,7,7,4,6,4,,5,5,3,4,2-4[32:3],5,5h[8:1],,
{16}2x,,7,7,5,6,4,,2/5xh[8:1],,3,7/4xh[8:1],,6,2/5xh[8:1],,
{32}1xbh[64:1],E2,E3,,{16}6,6,4,5,4,,7,1,8,2,7-5[32:3],3,3h[8:1],,
{16}7x,,3,3,5,4,6,,7/4xh[8:1],,6,2/5xh[8:1],,3,7/4xh[8:1],,
{32}8xbh[64:1],E8,E7,,{16}3,3,5,4,6h[8:1],,5,5,7,4,6,3,5h[8:1],,4,4,6,5,6,4,7,,
{16}2/5xh[8:1],,3,7/4xh[8:1],,6,2/5xh[8:1],,
{32}1xbh[64:1],E2,E3,,
{16}7,7,4,6,3h[8:1],,5,4,5,3,6,4,7,,
{16}5xbh[8:1]/6h[8:1],,,8xhb[8:1]/2h[8:1],,,3xhb[8:1]/4h[8:1],,,7xhb[8:1]/1h[8:1],,,2/8-3[8:1],,3,,
{16}8b/4b,,4,4,6,6,2,2,7,5,6,5,6,4,5,3,
{24}5x,6,7,1x,2,3,6x,7,8,2x,3,4,
{16}5/7xh[8:1],,4,1/3xh[8:1],,8,4/7xh[8:1],,
{32}1xbh[64:1],E2,E3,,{16}7,5,6,5,6h[8:1],,3,5,3,4,2,4,2h[8:1],,
{16}6,5,6,4,7,5,7,,
{16}8/2xh[8:1],,7,4/6xh[8:1],,3,5/2xh[8:1],,
{32}8xbh[64:1],E8,E7,,{16}3,4,2,5,3,5,4,6,3,6,4,5,3,5,
{16}2,2,5,4,7,7,3,,2/5xh[8:1],,3,7/4xh[8:1],,6,2/5xh[8:1],,
{32}1xbh[64:1],E2,E3,,{16}5,4,6,5,7,5,6,4,5,3,4,2,5,1,
{16}6xh[16:1],4,7,3xh[16:1],5,2,7xh[16:1],1,4,2,5,3,6,4,7,5,
{4}1x>8[4:6],,,,,,,,
{12}1x,2,3,5x,6,7,
{16}1x,8,1,8,1,8,1,8,
{32}1b-5[32:3],2,3,4,5,6,7,8,
{4}C,
{16}6,5,,2,1,,C,,
{16}5b/1b-3[8:1],,,8,1,,7,,6-8[8:1],4,,5,6,,5,,
{16}2-4[8:1],,,1,2,,8,,7/5xh[8:1],,8,3/1xh[8:1],,4,7/5xh[8:1],,
{32}8x-6[8:1],E1,E2,,{16},4,8,,2,,3-1[8:1],5,,4,3,,4,,
{16}7-5[8:1],,,8,7,,1,,2/4xh[8:1],,1,6/8xh[8:1],,5,2/4xh[8:1],,
{32}1x-3[8:1],E1,E8,,{16},5,1,,7,,8-6[8:1],4,,4,8-4[8:1],,5,,
{16}8<5[8:1],,,1,8,,2,,1/5xh[8:1],,3,8/4xh[8:1],,6,1x/5x,,
{16}2xh[8:1]/4xh[8:1],,,7h[8:1]/8h[8:1],,,2h[8:1]/1h[8:1],,,7h[8:1]/5h[8:1],,,2/6,,C,,
{16}2,2,1,3,7,7,8,6,1,5,2,6,3,7,4,8,
{4}5<4[8:5],7,1,,5<4[8:5],7,1,,5<4>5[8:12],8,2,4,{8}5,,4,4,3,,,,
{16}7,5,7,5,7,5,7,5,6,4,6,4,6,4,6,4,
{16}5,3,5,3,5,3,5,3,4,2,4,2,4,2,4,2,
{16}5,1,5,1,6,2,6,2,7,3,7,3,8,4,8,4,
{16}1,1,2,2,3,3,4,4,5,5,6,6,7,7,8,8,
{16}1xh[8:1]/E6/B6,,,7xh[8:1]/E4/B4,,,5xh[8:1]/E2/B2,,3x,3,5,2,6,1,7,,
{16}8xh[8:1]/E4/B3,,,2xh[8:1]/E6/B5,,,4xh[8:1]/E8/B7,,6x,6,4,7,3,8,2,,
{16}5xh[8:1]/E2/B2,,,3xh[8:1]/E8/B8,,,1xh[8:1]/E6/B6,,7x,7,1,6,2,5,3,,
{16}4xh[8:1]/E8/B7,,,6xh[8:1]/E2/B1,,,8xh[8:1]/E4/B3,,2x,2,8,3,7,4,6x,,
{16}3h[64:1],5,4,5,4,5,4,5,2h[64:1],5,4,5,4,5,4,5,
{16}1h[64:1],5,4,5,4,5,4,5,8h[64:1],5,4,5,4,5,4,5,
{16}3x,4,3,6x,5,6,4,5,2x,4,2,7x,5,7,1x,8,
{16}2/7,,3,4,5/2,,7/4,,1b-5[8:1]/Cf,,,,,,,,
{16}7xh[8:1]/4bx,,5,6,3,8,2,4,1,1,6,5,8-5[8:1],3,1,,
{16}8x/4x,,1,1,4,3,6,8,5,2,1,4,5-7[32:3],3,3,,
{32}5x/1x,E6,E7,,{16},2,2-4[32:3],8,1,7,
{32}2x/6x,E3,E4,,{16},7,7-5[32:3],1,8,2,
{32}7x/3x,E7,E6,,{16}2,2,8,3,6,5,8,1,4,3,7,1,1,,
{16}2xh[8:1]/5b,,4,3,6,1,7,5,8,8,3,4,1-4[8:1],6,8,,
{16}1x/5x,,8,8,5,6,3,1,4,7,8,5,4-2[32:3],6,6,,
{32}4x/8x,E4,E3,,{16},7,7-5[32:3],1,8,2,
{32}7x/3x,E7,E6,,{16},2,2,8,1,7,
{16}6h[8:1]/2h[8:1],,,8h[8:1]/4h[8:1],,,7/3,,Cf/1b,,,,,,,,
{48}4x/7bx,E7,E6,,,,,,,5x/1x,E2,E3,,,,,,,4x/8x,B8,C,B4,,,{16}2bx,2,8,3,5,1,6,,
{48}5x/2bx,E3,E4,,,,,,,4x/8x,E8,E7,,,,,,,5x/1x,B1,C,B5,,,{16}7bx,7,1,6,4,8,3,,
{48}4x/7bx,E7,E6,,,,,,,5x/1x,E2,E3,,,,,,,{32}4x/8x,7x,6x,,{16}1b,1,5,2,7,4,8,,
{48}5x/2bx,E3,E4,,,,,,,4x/8x,E8,E7,,,,,,,{32}5x/1bx,2bx,3bx,,{16}8b,8,4,7,2,5,1,,
{16}7b,5,6,1x,4,3,8x,8,2b,4,3,8x,5,6,1x,1,
{16}7b,8,5,3x,4,1,6x,6,2b,1,4,6x,5,8,3x,3,
{16}6x,4,8,2x,4,8,6x,2,7x,1,5,3x,1,5,7x,3,
{16}8bx,,6,5,4/7,,2/5,,1/8,,2,5,3,6,4,7,
{1}5<6<7>8>1>2>3<4[32:16]*<6<7>8>1>2>3<4[32:16],
{32}5x,6,7,8,1,2,3,4,5,6,7,8,1,2,3,4,E5,E6,E7,E8,E1,E2,E3,E4,E5,,,,,,,,
