&title=girls.exe
&artist=rintaro soma
&first=0.038
&des=Dstar
&lv_5=15
&lv_6=14+
&des_5=Dstar
&des_6=Dstar
&inote_5=
(188){4},{16},,,,,,,,,,,,,,,,Ch[48:5],
{48},,,,,,B7,,B6,,B2,,{16}B3,,,,,,,{1}2/7p5[4:11],
,,,2q5[4:11]/7p4[4:11],
{4},,,,,,,,,,,,3/5,
3/5,{2}4/6h[4:3],
{4},5,{2}4/6,
{4}6/4,6/4,{2}5/3h[4:3],
{4},4,{2}5/3,
{16}7h[2:1]/B2,B3,B4,B5,B6,B7,B8,B1,B2,B3,B4,B5,B6,B7,B8,B1,
6h[2:1]/B2,B3,B4,B5,B6,B7,B8,B1,B2,B3,B4,B5,B6,B7,B8,B1,
4,3,4,3,5,2,5,2,6,1,6,1,7,8,7,8,
{24}7,6,5,4,8,1,2,3,4,8,7,6,5,4,3,2,1,8,{16}7,4,3,2-6[16:17],
{1},{4},{8},{16}7,
7,7,7,7,7,7,7,7,7,
{4}7b<4[8:1],7/3,{16}3,4,{8}3,5/2,{16}3,4,
{8}3,2/5,1p4[8:1],4p7[8:1],1,7,6,5,
4/1>4[8:1],2,1/5,6,{16}7,8,{8}7,1/6,2,
{16}3,4,{8}3,{16}7,5,6,4,5,3,{8}4q1[0.4787##0.1596]*p7[0.4787##0.1596],{16},,,,,,,,2>5[8:1],
6,2,6,{8}2,7,{16}7,4,6,3,
{8}5,2/5,{16}3,4,3,4,{8}3,2/5q1[8:1],1q5[8:1],5,
2,3,{16}4,5,4,5,2,7,2,7,3,6,3,6,
{1}1s5[8:5],
{8}7h,{16}4,6,4,6,{8}7/3,{32}2,3,4,5,,,,,7,6,5,4,,,,,{8}5/3,
{16}6,4,7,5,{8}8,1/2<7[8:1],3,2,4,
{16}5,1,{8}5,2/6,{16}7,8,{8}7<4[8:1],1/6,7,1,
{16}2,3,2,3,{8}2,2/4,3/5,4/6,7/5-1[12:1],8,
{2}5/1-5[12:1],{12}3,3,5,4,4,6,
{4}5-1[8:1]/7-3[8:1],5/7,{8}2>5[8:1],1,2/5,6,
{12}7,7,7,4p8[8:1]/8p4[8:1],,,{2}8/4-6-8-2-4[4:3],
{16},,,,,,,,8,8,,,1,1,,,{8}E1/2>6>2[2:3],
E8,E7,E1,E8,E7,E1,E8,
E7,E1,E8,E7,{4}1<7[12:1],1,
{8}E1/7<3<7[2:3],E2,E3,E1,E2,E3,E1,E2,
E3,E1,E2,E3,{4}8>3[8:1],8,
{8}B5/4>8>4[2:3],B8,E7,B5,B8,E7,B5,B8,
{4}6<8[12:1],6,1<6[8:1],1,
{8}B4/5<1<5[2:3],B1,E3,B4,{24}1,2,3,4,,,1,2,3,4,,,2,
3,{12}4,{24},,2,3,{6}4,1>3[12:1],{12},{4}A1,
{8}4<8[8:7],3,2,1,8,1,2,3,
4<8[8:7],3,2,1,8,1,2,3,
1<5[8:7],2,3,4,5,4,3,2,
1<5[8:7],2,3,4,5,4,3,2,
1>5[8:7],8,7,6,5,6,7,8,
1>5[8:7],8,7,6,5,6,7,8,
1-5[16:9],1,2,3,4,6,7,8,
{2}5h[4:1]/1h[4:1],C,
{16}3,4,3,4,2,5,2,5,4,6,4,6,3,7,3,7,
2,3,4,5,8,7,6,5,1,2,3,4,7,6,5,4,
2,1,2,1,3,8,3,8,5,6,5,6,4,7,4,7,
2,3,4,5,1,2,3,4,7,6,5,4,8,7,6,5,
4,3,4,3,5,2,5,2,6,1,6,1,7,8,7,8,
7,6,5,4,8,7,6,5,1,8,7,6,2,1,8,7,
5,4,5,4,6,3,6,3,7,2,7,2,8,1,8,1,
8,7,6,5,4/B8,3,2,1,8/C,7,6/C,5,4,3,2/B4,1,
8/4x,3/7,2/6,1/5,4,3,2,1,4/8,3/7,2/6,1/5,8,7,6,5,
8/4,7/3,6/2,5/1,4,3,2,1,8/4,7/3,6/2,5/1,4,3,2,1,
8/4,5,6,7,8,1/7,2/6,3/5,4,3,2,1,8,7/1,6/2,5/3,
{32}4,5,6,7,8,1,2,3,{4}4h[4:1],{48}6,B4,,,,,{8}7,8,1,
{16}2/1h[2:1],,,2,,,{8}2,{48}2,E3/B1,B3/C,B4/B5,E5,A5,,,,,,,{16}7/8h[2:1],,,7,
,,{8}7,{48}7,E7/B8,B6/C,B5/B4,E5,A4,,,,,,,{4}2/1h[4:1],{8}3,4/8,
{16}7/5,,,5/7,,,{8}5/7,{16}1/3,,,2/4,3,4,{8}3,
5/3,3/5,7/1,1/7,{32}2/8,3,4,5,6,7,8,1,{24}2/5,3,4,5,6,7,
(211.5){1}1/8<7-5-3>2v8b[3.4043##8.7943],
,,6h[4:1],
,7h[4:1],
,8h[4:1],
,1h[4:1],
{16},,,,,,,,,,,,,,,,3,
5,3,5,3,5,3,5,3,5,3,5,3,5,3,5,
2,6,2,6,2,6,2,6,2,6,2,6,2,6,2,6,
1,7,1,7,1,7,1,7,1,7,1,7,1,7,1,7,
8,8,8,8,8,8,8,8,8,8,8,8,8z4[16:3],8,8,8,
{1}8b,
,,,,{4},{8},6/2,
{4}7,8/1>4[8:1],
{8}1,8,7,{16}6,5,6,5,{8}6,6qq4[8:1],4<7[8:1],
6,1,{16}1<6[8:1],2,3,4,{8}1/5q1[8:1],4,{4}5/3,
{8}2,3,6/4h[16:1],7,8,3/1h[16:1],4,5,
8,{16}7,5,7,5,{8}7,4,3,2/8<5[8:1],1,
8,1,2,{16}3,4,3,4,{8}3,3pp5[8:1],5>2[8:1],
3,8,{16}8>3[8:1],7,6,5,{8}8/4p8[8:1],5,{4}4/6,
7bpp1[8:1]*qq5[8:1],7b,2bV47[4:1]/6bV83[4:1],{8}2b/6b,Cf,
,,{4}4-2[12:1]/8-6[12:1],4/8,{16}1,5,1,5,
{24}A1,A2,A3,A4,A5,A6,A8,A1,A2,A3,A4,A5,A1,A8,A7,A6,A5,A4,A8,A7,A6,A5,A4,A3,
A8,A1,A2,A3,A4,A5,A7,A8,A1,A2,A3,A4,{16}5h[16:3],,,8,,,{8}5/1,
7/3<5[12:1],2,3/8,{16}1>3[8:1],8,7p3[8:1],6,{8}5/1,{4}7,
{16}2,4,2,4,{8}2,{16}8,7,,3,{8}4w8[0.4255##1.4184],,,{1}4b,
{32},,,,,,,,,,,,,,,,7,6,5,4,3,2,1,8,{4}7b/3,
{16}5,7,5,6,4,6,4,5,3,4,3,4,{8}2-4[12:1],5,
{16}6-4[12:1],7,8,1,2,1,8,7,6,4,6,4,5,5,5,5,
6,4,6,4,5,3,5,3,{8}4-6[12:1],4,2-4[12:1],2,
{16}6,7,8,1,5,6,7,8,4,5,6,7,3,4,5,6,
8,6,8,7,1,7,1,8,2,1,2,1,{8}3-1[12:1],8,
{16}7-1[12:1],6,5,4,3,4,5,6,7,1,7,1,8,8,8,8,
7,1,7,1,6,2,6,2,5,1,5,1,4,8,4,8,
7,6,5,4,8,7,6,5,1,8,7,6,2,1,8,7,
6z2b[1.7021##0.2128],6,6,6,6,6,6,6,4,4,4,4,4,4,4,4,
1,1,1,1,1,1,1,1,{4}6,7b,
{8}2/5,{16}3,4,{8}3,2/5,1>4[8:1],8,7,6,
5<8[8:1],4,3,2,{16}1,2,3,4,2,3,4,5,
{8}6/3,3,7/4,7,2/5<8[8:1],2,5,3p7[8:1],
{16},,3,4,5,6,8,1,2,3,{24}8,7,6,{32}5/4,3,2,1,8,7,6,5,
{24}B8/4>8[1.1348##0.2128]*<8[1.1348##0.2128],B7,B6,B5,B4,B3,B2,B1,B8,B7,B6,B5,{16}B4,B3,B2,B1,B8,B7,B6,B5,
{2}A4/B4,{16}1,2,3,4,5/8,7,6,5,
{8}4/3b>8[8:1],2,{4}3/4,{16}7,8,{8}7,1/6,{16}7,8,
{8}7,6/1,5p8[8:1],8p3[8:1],5,3,2,1,
8/5<8[8:1],6,5/1,2,{16}3,4,{8}3,5/2,6,
{16}7,1,{8}7,{16}3,8,2,7,1,6,{8}8q5[0.4255##0.1418]*p3[0.4255##0.1418],,,{4}8,
{16}7<4[8:1],3,7,3,{8}7,2,{16}1,4,2,5,
{8}3,7/4,{16}6,5,6,5,{8}6,7/4p8[8:1],8p4[8:1],4,
5,6,{16}7,6,5,4,2,3,4,5,8,7,6,5,
{24}1,2,3,7,6,5,2,3,4,8,7,6,1,5,1,5,1,5,1,5,1,5,1s5[0.6619##0.1418],5,
,,,,,,,,,,,,{2}1b/5h[1:3],
{1},,{4},,,{16},,{24}A8,
7h,6,
7h,A8,1/6,7h/2h,A8/A3,1,2h,A3,2h,1,
E
&inote_6=
(188){4},{16},,,,,,,,,,,,,,,,Ch[48:5],
{48},,,,,,B7,,B6,,B2,,{16}B3,,,,,,,{1}2/7p5[4:11],
,,,2q5[4:11]/7p4[4:11],
{4},,,,,,,,,,,,3/5,
3/5,{2}4/6h[4:3],
{4},5,{2}4/6,
{4}6/4,6/4,{2}5/3h[4:3],
{4},4,{2}5/3,
{16}7h[2:1]/B2,B3,B4,B5,B6,B7,B8,B1,B2,B3,B4,B5,B6,B7,B8,B1,
6h[2:1]/B2,B3,B4,B5,B6,B7,B8,B1,B2,B3,B4,B5,B6,B7,B8,B1,
4,3,4,3,5,2,5,2,6,1,6,1,7,8,7,8,
{24}7,6,5,4,8,1,2,3,4,8,7,6,5,4,3,2,1,8,{16}7,4,3,2-6[16:17],
{1},{4},{8},{16}7,
7,7,7,7,7,7,7,7,7,
{4}7b<4[8:1],7/3,{16}3,4,{8}3,5/2,{16}3,4,
{8}3,2/5,1p4[8:1],4p7[8:1],1,7,6,5,
4/1>4[8:1],2,1/5,6,{16}7,8,{8}7,1/6,2,
{16}3,4,{8}3,{16}7,5,6,4,5,3,{8}4q1[0.4787##0.1596]*p7[0.4787##0.1596],,,{4}4,
{16}2>5[8:1],6,2,6,{8}2,7,{16}7,4,6,3,
{8}5,2/5,{16}3,4,3,4,{8}3,2/5q1[8:1],1q5[8:1],5,
2,3,{16}4,5,4,5,2,7,2,7,3,6,3,6,
{1}1s5[8:5],
{8}7h,{16}4,6,4,6,{8}7/3,{32}2,3,4,5,,,,,7,6,5,4,,,,,{8}5/3,
{16}6,4,7,5,{8}8,1/2<7[8:1],3,2,4,
{16}5,1,{8}5,2/6,{16}7,8,{8}7<4[8:1],1/6,7,1,
{16}2x,3x,2x,3x,{8}2x,2/4,3/5,4/6,7/5-1[12:1],8,
{2}5/1-5[12:1],{12}3,3,5,4,4,6,
{4}5-1[8:1]/7-3[8:1],5/7,{8}2>5[8:1],1,2/5,6,
{12}7x,7x,7x,4p8[8:1]/8p4[8:1],,,{2}8/4-6-8-2-4[4:3],
{16},,,,,,,,8,8,,,1,1,,,{8}E1/2>6>2[2:3],
E8,E7,E1,E8,E7,E1,E8,
E7,E1,E8,E7,{4}1<7[12:1],1,
{8}E1/7<3<7[2:3],E2,E3,E1,E2,E3,E1,E2,
E3,E1,E2,E3,{4}8>3[8:1],8,
{8}B5/4>8>4[2:3],B8,E7,B5,B8,E7,B5,B8,
{4}6<8[12:1],6,1<6[8:1],1,
{8}B4/5<1<5[2:3],B1,E3,B4,{24}1x,2x,3x,4x,,,1x,2x,3x,4x,,,2x,
3x,{12}4x,{24},,2x,3x,{6}4x,1>3[12:1],{12},{4}A1,
{8}4<8[8:7],3,2,1,8,1,2,3,
4x<8[8:7],3x,2x,1x,8x,1x,2x,3x,
1<5[8:7],2,3,4,5,4,3,2,
1x<5[8:7],2x,3x,4x,5x,4x,3x,2x,
1>5[8:7],8,7,6,5,6,7,8,
1x>5[8:7],8x,7x,6x,5x,6x,7x,8x,
1-5[16:9],1,2,3,4,6x,7x,8x,
{2}5xh[4:1]/1xh[4:1],C,
{16}3,4,3,4,2,5,2,5,4,6,4,6,3,7,3,7,
2,3,4,5,8,7,6,5,1,2,3,4,7,6,5,4,
2,1,2,1,3,8,3,8,5,6,5,6,4,7,4,7,
2,3,4,5,1,2,3,4,7,6,5,4,8,7,6,5,
4,3,4,3,5,2,5,2,6,1,6,1,7,8,7,8,
7,6,5,4,8,7,6,5,1,8,7,6,2,1,8,7,
5,4,5,4,6,3,6,3,7,2,7,2,8,1,8,1,
8,7,6,5,4/B8,3,2,1,8/C,7,6/C,5,4,3,2x/B4,1,
8/4x,3/7,2/6,1/5,4,3,2,1,4/8,3/7,2/6,1/5,8,7,6,5,
8/4,7/3,6/2,5/1,4,3,2,1,8/4,7/3,6/2,5/1,4,3,2,1,
8/4,5,6,7,8,1/7,2/6,3/5,4,3,2,1,8,7/1,6/2,5/3,
{32}4,5,6,7,8,1,2,3,{4}4h[4:1],{48}6,B4,,,,,{8}7,8,1,
{16}2/1h[2:1],,,2,,,{8}2,{48}2,E3/B1,B3/C,B4/B5,E5,A5,,,,,,,{16}7/8h[2:1],,,7,
,,{8}7,{48}7,E7/B8,B6/C,B5/B4,E5,A4,,,,,,,{4}2/1h[4:1],{8}3,4/8,
{16}7/5,,,5/7,,,{8}5/7,{16}1/3,,,2x/4x,3x,4x,{8}3x,
5/3,3/5,7/1,1/7,{32}2/8,3,4,5,6,7,8,1,{24}2/5,3,4,5,6,7,
(211.5){1}1/8<7-5-3>2v8b[3.4043##8.7943],
,,6h[4:1],
,7h[4:1],
,8h[4:1],
,1h[4:1],
{16},,,,,,,,,,,,,,,,3,
5,3,5,3,5,3,5,3,5,3,5,3,5,3,5,
2,6,2,6,2,6,2,6,2,6,2,6,2,6,2,6,
1,7,1,7,1,7,1,7,1,7,1,7,1,7,1,7,
8,8,8,8,8,8,8,8,8,8,8,8,8z4[16:3],8,8,8,
{1}8bx,
,,,,{4},{8},6/2,
{4}7,8/1>4[8:1],
{8}1,8,8,{16}8,7,6,5,{8}4,3pp5[8:1],5>2[8:1],
3,8,{16}8>3[8:1],7,6,5,{8}4p8[8:1],5,{4}6,
{8}2,3,6/4h[16:1],7,8,3/1h[16:1],4,5,
8,{16}7,5,7,5,{8}7,4,3,2/8<5[8:1],1,
8,1,1,{16}1,2,3,4,{8}5,6qq4[8:1],4<7[8:1],
6,1,{16}1<6[8:1],2,3,4,{8}5q1[8:1],4,{4}3,
7bq3[8:1]*p3[8:1],7b,2bV47[4:1]/6bV83[4:1],{8}2b/6b,Cf,
,,{4}4-2[12:1]/8-6[12:1],4/8,{16}1,5,1,5,
{24}A1,A2,A3,A4,A5,A6,A8,A1,A2,A3,A4,A5,A1,A8,A7,A6,A5,A4,A8,A7,A6,A5,A4,A3,
A8,A1,A2,A3,A4,A5,A7,A8,A1,A2,A3,A4,{16}5h[16:3],,,8,,,{8}6/1,
{4}8h[8:1]/3<5[12:1],{8}3,{16}1>3[8:1],8,7p3[8:1],6,{8}5/1,{4}7,
{16}2,4,2,4,{8}2,{16}8,7,,3,{8}4w8[0.4255##1.4184],,,{1}4b,
{32},,,,,,,,,,,,,,,,7,6,5,4,3,2,1,8,{4}7b/3,
{16}5,7,5,6,4,6,4,5,3,4,3,4,{8}2-4[12:1],5,
{16}6,7,8,1,2,3,4,5,6,4,6,4,7,3,7,3,
6,4,6,4,5,3,5,3,{8}4-6[12:1],4,2-4[12:1],2,
{16}6,7,8,1,5,6,7,8,4,5,6,7,3,4,5,6,
8x,6,8,7,1,7,1,8,2,1,2,1,{8}3-1[12:1],8,
{16}7,6,5,4,3,2,1,8,7,1,7,1,6,2,6,2,
7,1,7,1,6,2,6,2,5,1,5,1,4,8,4,8,
7,6,5,4,8,7,6,5,1,8,7,6,2,1,8,7,
6z2b[1.7021##0.2128],5,4,3,2,1,8,7,3,2,1,8,7,6,5,4,
7,8,1,2,3,4,5,6h[16:1],,,,,{4}4b,
{8}2/5,{16}3,4,{8}3,5/2,1>4[8:1],8,7,6,
5<8[8:1],4,3,2,{16}1,2,3,4,2,3,4,5,
{8}6/3,3,7/4,7,2/5<8[8:1],2,5,3p7[8:1],
{16},,3,4,5,6,8,1,2,3,{24}8x,7x,6x,{32}5x/4x,3x,2x,1x,8x,7x,6x,5x,
{24}B8/4x>8[1.1348##0.2128]*<8[1.1348##0.2128],B7,B6,B5,B4,B3,B2,B1,B8,B7,B6,B5,{16}B4,B3,B2,B1,B8,B7,B6,B5,
{2}A4/B4,{16}1,2,3,4,5/8,7,6,5,
{8}4/3b>8[8:1],2,{4}3/4,{16}7,8,{8}7,6/1,{16}7,8,
{8}7,6/1,5p8[8:1],8p3[8:1],5,3,2,1,
5<8[8:1],1,5,2,{16}2,3,{8}4,5/6,6,
{16}7,1,{8}7,{16}2,8,2,8,2,8,{8}2q7[0.4255##0.1418]*p5[0.4255##0.1418],,,{4}2,
{16}8,7,6,5,{8}4,3/4,{16}1,2,3,4,
{8}5,6/5,{16}7,4,7,4,{8}7,4p8[8:1],8p4[8:1],4,
5,6,{16}7,6,5,4,2,3,4,5,8,7,6,5,
{24}1,2,3,7,6,5,2,3,4,8,7,6,1,5,1,5,1,5,1,5,1,5,1s5[0.6619##0.1418],5,
,,,,,,,,,,,,{2}1b/5h[1:3],
{1},,{4},,,{16},,{24}A8,
7xh,6x,
7xh,A8,1x/6x,7xh/2xh,A8/A3,1x,2xh,A3,2xh,1x,
E
