&title=RE Aoharu
&artist=Nor
&first=0.07
&des_1=CeNx
&des_2=CeNx
&des_3=CeNx
&des_4=CeNx
&des_5=CeNx
&lv_5=14
&des_6=CeNx
&des_7=CeNx
&des=CeNx
&inote_5=(180){8}1,2<3[8:9],3,4,,,,,E7,,E1,,E3,,E5,,
8,7>6[8:9],6,5,,,,,E3,,E1,,E7,,E5,,
2,3>4[8:9],4,5,,,,,B7,,B1,,B3,,B5,,
4,5>6[8:9],6,7,,,,,3,,2,,1w5[8:1],,
1b,,35,,36,,E7/3,,E8/3,,E1/3,,E2/3,,B4/3,,E6/3,,
63,,62,,E1/6,,E8/6,,B5/6,,E4/6,,E3/6,,E2/6,,
71,,81,,E3/1,,E4/1,,E5/1,,E6/1,,E7/1,,E8/1,,
25,3,47,6,25,3,47,6,3h[8:1],4,2,6h[8:1],5,7,1b/8b,,
26,3,48,7,6-1[8:1]/3,5,4,,3,4,5v8[8:1],6,7<4[8:1],,,,
25,6,71,2,3-8[8:1]/6,4,5,,6,5,4v1[8:1],3,2>5[8:1],,,,
75,4,53,2,7-3[8:1]/1,6,5,,24,1,8-3[8:1]/6,5,4-7[8:1],,,,
28,3,46,7,2-6[8:1]/8,3,4,,75,8,1-6[8:1]/3,4,5-2[8:1],,,,
37,5,26,4,3/7-4[8:1],8,17,,34,2,1/8-4[8:1],7,6-2[8:1]/8,,46,,
38,5,16,4,8/3-8[8:1],5,36,,65,7,8/1-5[8:1],2,3-7[8:1]/1,,53,,
5x/6x,7,18,2,3-8[8:1]/4-8[8:1],5,34,,
1x/2x,3,54,6,7-4[8:1]/8-4[8:1],1,78,,
5x/6x,56,47,47,38,38,12,12,{16}3,4,3,4,2,5,2,5,1,6,1,6,8-4[8:1],7,8,7,{64}8b,Cf,,,{16},,,
{4},,,,,,,Ch[1:2],,,,,,,,
{8}E5,,,E3,,,E1,,E5,,,E7,,,C,,E5,,,E3,,,E1,,E8,,,B6,,,E5,,
E4,,,B2,,,E1,,E6,,,E8,,,C,,E4,,,E3,,,E2,,E7/B6,,,E1/B8,C,,B2/E3,,
E6h[8:32],,,2,B6,,1,,8/B5,,,1,B6,,2,,
3/B5,,,2,B6,,1,,2/B5,,,3,B6,,4,,
E4h[1:3],,,7,B3,,8,,1/B4,,,8,B3,,7,,
6/B4,,,7,B3,,8,,7x/B4,,
{16},,1,8,1,,,,1<2[4:3]/2>1[4:3],,,,{8}A1/D2f/A2,,,,,,,,
7/3h[4:1],,5,2/6h[4:1],,1,8>7[4:3]/7<8[4:3],,A8/D8f/A7,,,,,,,,
7h[4:1]/1,,2,7/3h[4:1],,6,5<4[4:3]/4>5[4:3],,A5/D5f/A4,,,,,,,,
4h[4:1]/7,,5,6h[4:1]/3,,2,8<1[4:3]/1>8[4:3],,A8/D1f/A1,,,,,,,,
8h[4:1],,3,2h[4:1]/7,,8,7pp4[4:3]/1,,
A7f/3,,3,,3,,3,,3h[4:1],5,6,4h[4:1],6,7,8/2qq5[4:3],,
A2f/6,,6,,6,,6,,6h[4:1],4,3,5h[4:1],3,2,8/1qq6[4:3],,
A1f/2,,3,,3,,3,,4h[4:1],6,7,8h[4:1],3,2,8<3[8:3]/1,,
A8f/2,2,1,1,8,8,7,7,6h[8:1],5,7,3h[8:1],4,2,1b/8b,,
{16}7/2-5[8:1],,1,,7-4[8:1],,8,,3,,2,,1-6[8:1]/E5h[1:1],,,,1-3[8:1]/E6f,,,,1<6[8:1],,E4f,,1>3[8:1],,,,1/E6f,,,,
7-4[8:1],,8,,1-5[8:1],,2,,6,,7,,8-3[8:1]/E5h[1:1],,,,8-6[8:1]/E4f,,,,8>3[8:1],,E6f,,8<6[8:1],,,,8/E4f,,,,
3-8[8:1],,2,,7-3[8:1],,6,,3,,2,,1-6[8:1]/A5h[1:1],,,,1-4[8:1]/E6f,,,,1<6[8:1],,E5f,,1>4[8:1],,,,1/E6f,,,,
6-1[8:1],,7,,2-5[8:1],,3,,6,,7,,8-3[8:1]/A4h[1:1],,,,8-5[8:1]/E4f,,,,8>3[8:1],,E5f,,8<5[8:1],,,,8/E4f,,,,
5/2-5[8:1],,1,,8-3[8:1],,7,,6-1[8:1],,5,,4,,3,,2x/E7f,,1,,8,,7x/E4f,,6,,5,,4x/E1f,,,,
2/7-4[8:1],,8,,1-6[8:1],,2,,3-8[8:1],,4,,5,,6,,7x/E4f,,8,,1,,2x/E7f,,3,,4,,5x/E2f,,,,
7x/2x-5[8:1],,1,,2/6,,7,,8-5[8:1]*-3[8:1],,8,,8-4[8:1],,,,8x/3x-8[8:1],,2,,3/7,,6,,5<8[8:1]*>2[8:1],,5,,5,,,,
1x/2x,,3,,4,,4/5x,,4x/5,,6,,7x/8,,1,,2,1,2,,34,,45,,56,,27,,1b/8b,,,,
7<4[8:1],,8,,1-5[8:1]/7,,2,,8-4[8:1],,7,,28,,1,,25,,3,,6,5,6,,47,,3,,2/8,7,6,5,
4/2-5[8:1],,3,1,2-7[8:1],,7,,6-1[8:1],,5,,64,,3,,28,,7,,6,5,6,,54,3,2,1,87,6,5,4,
3/2-6[8:1],,1,,8<5[8:1]/2,,7,,8/3-8[8:1],,4,,5x/3,,6,,74,,3,,2,1,2,,83,,7,,81,2,3,4,
5/6-1[8:1],,7,8,6-4[8:1],,3,,2-6[8:1],,1,,28,,7,,46,,3,,2,1,2,,34,5,6,7,18,2,3,4,
5/6V48[8:2],,7,,1-3[8:1]/6,,2,,1-5[8:1]*-7[8:1],,,,1,,,,64,,3,,2,1,2,,81,,7,,81,7,6,5,
4/3V51[8:2],,2,,8-6[8:1]/3,,7,,8-4[8:1]*-3[8:1],,,,8,,,,35,,6,,7,8,7,,62,3,4,5,62,7,8,1,
6xV47[4:1]/2,,,,6/1-5[8:1],,2,,1w5[8:1],,,,1,,,,3xV52[4:1]/7,,2,,3/8-4[8:1],,7,,8w4[8:1],,,,8,,,,
51,,51,,62,,62,,73,,73,,84,,84,,1,5,8,4,7,3,6,2,5,1,6,2,7,3,8,4,Cf,
E
