&title=【电棍】Vintage OTTO
&artist=DJGun
&first=0.02
&des=心白-HW
&des_4=心白-HW
&des_5=心白-HW
&lv_4=12
&lv_5=13+
&inote_4=(128){4},,,,{2}5h[8:7],
{16}4,,,4,,,{8}4h[1:1],
{16},,,,,,,,5,,,5,,,{8}5h[2:3],
{16},,,,,,,,4,,,4,,,{8}4h[2:1],
,,,,,,{4}5<8[8:1]/4>1[8:1],
{16},,,,,,,,1/8,,,8/1,,,{8}1-4[8:1]/8-5[8:1],
{16},,,,,,,,4/5,,,5/4,,,{8}4-2[8:1]/5-7[8:1],
{16},,,,,,,,1/8,,,7/2,,,{8}6h[2:1]/3h[2:1],
{16},,,,,,,,,,,,4,5,4,5,
{2}4-8[8:1],{8}5,6,7,8-4[8:1],
,,,,4,3,2,1-5[8:1],
,,,,8,7,6,5-1[8:1],
,,,3-7[8:1],,,{4}6,
{2}5<8[8:1],{8}4,3,2,1>4[8:1],
,,,,5,6,7,8q5[8:1],
,,,,1,2,3,4h[8:3],
,,{4}5p4>5[2:1],,,{1}Cf,
,,,3h[1:1],
6h[1:1],
{8}4,4,4,4,5,5,5,5,
{16}4,4,5,5,3,3,6,6,{2}4w8[8:1],
{4}6/5,{16}4/3,,,1-6[8:1]/2-5[8:1],,,,,,,,,{4}3/4,
{16}5/6,,,8-3[8:1]/7-4[8:1],,,,,,,,,{4}1/2,
{16}3/4,,,6-1[8:1]/5-2[8:1],,,,,,,,,{4}8/7,
{16}6/5,,,3-8[8:1]/4-7[8:1],,,,,,,,,{4}8/1,
{16}2/3,,,5p8[8:1]/4>1[8:1],,,,,,,,,{4}1/8,
{16}7/6,,,4q1[8:1]/5<8[8:1],,,,,,,,,{4}8/1,
{16}7/2,,,6/3,,E3/B3/B4,,B6/E7/B5,E2,E8,E4,E6,
{4}4xh[4:1],{16}5qq7[4:1],,,B3/B4/E4f,,,,,,,,,{2}2b-5[8:1]/8b-5[8:1],
6b-1[8:1]/4b-1[8:1],
{1}2b-5-2[2:1]/8b-5-8[2:1],
{4}1/2,{16}3/4,,,6-8[8:1]/5q1[8:1],,,,,,,,,{4}5/6,
{16}7/8,,,2-4[8:1]/1q5[8:1],,,,,,,,,{8}3bx/6bx,
{16}2,1,{8}2,{16}7,8,{8}7,{16}2,1,{8}2,{16}7,8,
{8}7,{16}2,1,{8}2,{16}7,8,{4}7-3[8:1],8-4[8:1],
1-5[8:1],{8}2,{16}2x,2x,,3,4,3,6,5,{8}6,
4p8[8:1],4,5b,5b,{16}5bx,1bx,5bx,1bx,{4}5bx,
{8}3x/6x,{16}4,5,{8}4,{16}6,5,{8}6,{16}3,4,{8}3,{16}7,6,
{8}7,{16}2,1,{8}2,{16}7,8,{4}7-5[8:1],1-3[8:1],
8-4[8:1],{8}2x,{16}2,2x,,7,8,7,2,1,{8}2,
8p4[8:1],8,1b,1b,{16}1bx,5bx,1bx,5bx,{4}1bx,
1v4[8:1],{16}5,,,5v8[8:1],,,,,{4}1,
{8}1v3[8:1],1,{4}5,{8}5v7[8:1],5,{4}1,
{2}1-5[8:1],{8}5w1[8:1],5,,,{2}1<6[8:1]*>4[8:1],
5-7[8:1]*-3[8:1],
{4}1b,{16}3,4,3,4,3,4,2,5,3,4,2,5,
{8}3x>8[8:1],3,5,6,7<4[8:1],7,{4}B1f,
2-6[8:1],1-5[8:1],8-4[8:1],7-3-6-4[2:1],
{16},,,,,,,,,,,,4,5,4,5,
{4}4-2[8:1],8-6[8:1],3-1[8:1],7-5[8:1],
2-8[8:1],6-4[8:1],1-7[8:1],5-3[8:1],
8-2[8:1],4-6[8:1],1-3[8:1],5-7[8:1],
2-4[8:1],6-8[8:1],3-5[8:1],7-1[8:1],
4-1[8:1],8-5[8:1],2-7[8:1],6-3[8:1],
8-3[8:1],4-7[8:1],2-5[8:1],6-1[8:1],
4qq3[8:1],8qq7[8:1],,1xV75[2:1]/5xV31[2:1],
,,,2/5,
{16}3x,4,3,4,3,5,3,5,{4}3,4/7,
{16}6x,5,6,5,6,4,6,4,{4}6,6/3,
{16}3x,5,3,5,4,6,4,6,{4}3,2/7,
{16}3x,6,3,6,4,5,4,5,{4}4-1[8:1],5-8[8:1],
{1}C,
E
&inote_5=(128){4},,,,{2}8/1h[8:7],
{16}7,,,6,,,{8}5h[1:1],
{16},,,,,,,,4,,,3,,,{8}2h[1:1],
{16},,,,,,,,1,,,8,,,{8}7h[2:1],
,,,6h[8:3],{16},,,,5h[16:3],{48},,,,,,4x,3,2,
{16}1h[16:7],{48},,,,,,,,,,,,,,,,,,8x,7,6,{8}5h[8:1],{48}8x,7,6,5h[8:1],,,,,,7x,6,5,{8}4h[16:9],
{32},,,,,,,,,,,,,,1x,2,{8}3h[8:1],{32}5x,6,{16}7h[16:9],{48},,,3x,4,5,{8}6h[8:3],
{16},,,,,,,,8/5,,,4/1,,,{8}3h[8:7]/2h[2:1],
{16},,,,,,,,,,,,1-4-7[4:3],8,7,6,
{4}5,5,,5-1[4:3],
,2,,2-4-8-6[4:3],
,7,,7-1[4:1],
,4-8[4:1],,5-1-3v5[4:3],
,4,,4v3<1[4:3],
,6,,6-2<3[4:3],
,3,,2h[2:1],
{32},,,,,,,,7x,6,5,4,3,2,1,8,7,6,5,4,3,2,1,8,7x>8-2<1-6qq4[4:15],6,5,4,3,2,1,8,
{1}7bxqq8b[2:7],
,,,{8}B1,
B2,B3,B4,B5,B6,B7,B8,
E2,E3,E4,E5,E6,E7,E8,E1,
{16}D2,D3,D4,D5,D6,D7,D8,D1,A2,A3,A4,A5,A6,A7,A8,A1,
{32}2x,3,4,5,6,7,8,1,2,3,4,5,6,7,8,1,{8}2-7b[16:1],6-3b[16:1],2,6,
{4}8h[16:3]/4h[16:3],{16}1h[8:1]/5h[8:1],,,2h[16:1]/6h[16:1],,5x,3x,5x,3h[16:3],5,6,7,
{4}8h[16:3]/4h[16:3],{16}7h[8:1]/3h[8:1],,,6h[16:1]/2h[16:1],{64},,,,B7/E7,B6,,,,,,,B3/E3,B2,,,{16}5x,5x,1x,1x,
{4}7h[16:3]/3h[16:3],{16}4h[8:1]/8h[8:1],,,5h[8:1]/1<8v6b[64:7],,1bx>2v4<5b[48:5]*-5b[48:5],,1bx,,,,,{4}6h[16:3]/3h[16:3],
{16}5h[8:1]/4h[8:1],,,7h[16:1]/2h[16:1],,1h[8:1]/8h[8:1],,,8/1,1/7,1/6,1/5,
{4}1h[16:3]/5h[16:3],{16}2h[8:1]/6h[8:1],,,7h[16:1]/3h[16:1],,4x,6x,4x,6h[16:3],4,3,2,
{4}1h[16:3]/5h[16:3],{16}2h[8:1]/6h[8:1],,,3h[16:1]/7h[16:1],,C/B7/B3,,,4x/8x,4x/8x,3x/7x,3x/7x,
{4}2h[16:3]/6h[16:3],{16}5h[8:1]/1h[8:1],,,8h[8:1],,7h[8:1],,6,5,4,3,2,
{4}1h[16:3]/5h[16:3],{16}2h[8:1]/6h[8:1],,,3h[8:1]/7h[8:1],,,{8}8h[16:1]/4h[16:1],{4}8v6[16:1]*v5[16:1],
8bv2[16:1]*v3[16:1],8bv6[16:1]*v5[16:1],8bv2[16:1]*v3[16:1],8bv6[16:1]*v5[16:1],
{1}8bv2[16:1]*v3v8b[2:1],
{4}3h[16:3]/7h[16:3],{16}6h[8:1]/2h[8:1],,,5h[8:1]/1<8v6b[64:7],,1bx>2v4<5b[48:5]*-5b[48:5],,1bx,,,,,{4}6h[16:3]/3h[16:3],
{16}5h[8:1]/4h[8:1],,,7h[16:1]/2h[16:1],,1h[8:1]/8h[8:1],,,8/1-5[16:1],1/7,1/6,1/5,
{4}1b<7[16:1],{8}1b>3[16:1],{16}6x,6x,{8}1b-6[16:1],{16}5x,5x,{8}1b-4[16:1],{16}4x,4x,
{8}1b<7[16:1],{16}5x,5x,{8}1b>3[16:1],{16}6x,6x,{4}1b-4[16:1],7x/1b-5[16:1],
1b/8x,{8}6x/5xh[8:5],{16}B2,B8,,B3,B7,B4,{8}B6,C,
1-4[16:1]*-3[16:1],1-6[16:1]*-7[16:1],1x,1x,{16}1w5[16:1],1,1,1,{4}1,
8b>2[16:1],{8}8b<6[16:1],{16}3x,3x,{8}8b-3[16:1],{16}4x,4x,{8}8b-5[16:1],{16}5x,5x,
{8}8b>2[16:1],{16}4x,4x,{8}8b<6[16:1],{16}3x,3x,{4}8b-5[16:1],2x/8b-4[16:1],
8b/1x,{8}3x/4xh[8:5],{16}B7,B1,,B6,B2,B5,{8}B3,C,
8-5[16:1]*-6[16:1],8-3[16:1]*-2[16:1],8x,8x,{16}8w4[16:1],8,8,8,{4}8,
7bh[4:1]/Cf,{16}5h[16:3],,,6h[8:1],,5h[16:1],{8}6h[8:1],{16}5-3[8:1],5,5-7[8:1],5,
{8}5x-1[8:1],5x,5x,{16}8,8,,2/7,2/7,2/7,{8}1p4[8:1],4p7[8:1],
{4}1,{16}5h[16:3],,,8b,,1x-4[16:1],1x-6[16:1],1x,,,,,{4}3/7,
5/1-6[8:1],8/1-4[8:1],2/1-5[8:1],
1/5,{8}4h[8:1],{16}5h[16:1],4h[16:1],6h[16:1],3h[16:1],5h[16:1],4h[16:1],6h[16:1],3h[16:1],7h[16:1],2h[16:1],
{8}8h[16:7],1b,1b,{16}1b,1b,,2/7,2/7,2/7,{4}2b-7[8:1]/7b-2[8:1],
{16}2-5[8:1]/7-4[8:1],,,,,,,Cf,,4xh[8:1]/5xh[8:1],,,{4}4pp1[2:1]/5qq8[2:1],
{16},,,,,,,,,,,,1,8,1,8,
{8}1-5[8:1],2,1/8-6[8:1],7,8/1-5[8:1],2,1/8-6[8:1],7,
8/1-4[8:1],2,1/7-3[8:1],8,7/2-5[8:1],1,2/6-1[8:1],7,
4-8[8:1],3,4/5-7[8:1],6,5/4-8[8:1],3,4/5-7[8:1],6,
5/4-1[8:1],3,4/6-2[8:1],5,6/3-8[8:1],4,3/7-4[8:1],6,
1>4[8:1],2,1/8<5[8:1],7,8/1>4[8:1],2,1/8<5[8:1],7,
8/4>1[8:1],3,4/8<5[8:1],7,8/4>1[8:1],3,4/8<5[8:1],7,
8>3[8:1],1,8<5[8:1],7,8>3[8:1],1,8w4[4:3],7,
{16},,,,,,,,,,,,,,,,3,
4,5,6,3,4,5,6,3,4,6,5,4,3,5,6,
4,4,6,5,3,4,5,5,4,3,5,6,3,4,6,5,
3h[16:3],6,5,4,3h[16:3],4,5,6,6h[16:3],3,4,5,6h[16:3],5,4,3,
6,6,5,5,4,4,3,3,2,1,8,7,6,5,4,3,
{1}6qq1[4:7]/2qq5[4:7],
E
