&title=Cranberry City ft. Luschel
&artist=lapix
&first=0
&des=nakura
&lv_5=13+
&inote_5=(138)
{1},
{16}2,5,4,6,3,4,2,6,5,8,3pp6[4:3],4,1h[4:4],,,,
{8},,,,,,,{16}2,2,
{16}3h[8:1]/4-6[8:1],,,,4>6[16:5]/5h[8:1],,,,4-1[10:1]/3h[8:1],,,,4b,,,,
{16}2h[8:1]/5h[8:1],,,,3/4,,7,5,,3,4,,2h[8:1]/6,,1,8pp4[16:9],
{1}7p4[4:2],
{16}7h[8:1]/4h[8:1],,,,6/5,,2,4,,6,5,,{8}7/1-6[8:1],2,
{8}1/5-1[8:1],4,,,2v4[8:1]/8v5[8:1],3/7,2/8,,
{16}2h[8:1]/5h[8:1],,,,3/4,,7,5,,2,5,,7h[8:1]/3,,8,1qq6[16:9],
{1}2q5[4:2],
{16}2h[8:1]/7h[8:1],,,,6,5,7,3,4,2,4,1,8,1,7,1,
{16}2b/6b,,3b/5b,3/5,,4b/6b,,1bw5[6:1],,2b/8b,2/8,,,,,,
{8}1h[8:1]/3>1[10:1],,8,,5h[8:1]/7<5[10:1],,4,{16},3,
{8}3h[8:2],5,8<5[8:1],{16}3>8[8:1],3,{8}8q5[8:1]*-4[8:1],3,,,
{8}5h[8:1]/3<5[10:1],,6,,2h[8:1]/8>2[10:1],,3-7[8:1],3,
{8}6h[4:1],,1-5[8:1],{16}5,5qq3[16:3]*pp6[16:3],{8},,,,
{8}4-2[10:1]/5h[4:1],,,{16},6,{8}6h[4:1]/5-3[10:1],,,{16},7,
{8}7h[4:1]/6V42[4:1],,,8z4[16:4],8,,,,
{16}8/2,,3,4,2,,6h[4:1]/5,,1,,4,5,3,,7h[4:1]/8,,
{8}1,2,3/6,4v3[6:1]/5v6[6:1],,,,,
{8}2/5,6,7>4[16:5],,3,4,5<2[16:5],,1,2,3p6[16:3],4,3,,4>7[16:5],,
{8}8,7,6>1[16:5],,2,1,8<3[16:5],,4,3,2q7[16:3],1,2,,{16}8,8,,,
{8}8/6,8/5,8/4,8/3,2v8[8:1],,,,
{8}1/3,1/4,1/5,1/6,7v1[8:1],,,,
{24}4b,5,6,7,8,1,2,3,4,5,6,7,{24}8b,7,6,5,4,3,2,1,8,7,6,5,
{12}1,1,1,8,8,8,{8}2b-6[10:1]/7b-3[10:1],,2b/7b,,
{16}1-5[8:1]/5,,3,4,1,,6,6V85[4:1],,3/4,,5-1[8:1]/6,,,,,
{16}4-7[8:1],,3,3,4,,1,1V72[4:1],,7/8,,1/2-6[8:1],,,4,,
{8}3>1[10:1],4,5>3[10:1],6,7<5[10:1],8,1qq5[4:2]*pp5[4:2],2,
{4},,,{8}7-3[8:1]/3,5/6,
{16}3/7,,4,,1/8,,3,4,,2/5,,7,8>3[8:1],7,8,,
{8}4/8<5[8:1],6,4/8-4[8:1],2,4-1[8:1]*-7[8:1]/8,,,,
{8}6/5,6/2,3/4,3/7,4q8[8:1]/5<7[10:1],2/7,4>2[10:1]/5p1[8:1],,
{8}4q5[8:3]/5<4[8:3],,,,,,2b/7b,,
{8}3h[8:1]/4-6[10:1],,,,6h[8:1]/5-3[10:1],,,,
{8}2h[8:1]/4<7[8:1],,,,7h[8:1]/5>2[8:1],,,,
{8}1-5[8:1]/8-4[8:1],,1b/8b,,2-7[8:1]/5,3,2/5<4[8:4],4,
{8}1h[2:1]/5b,,,,,,2-6[8:1]/6,3/4,
{16}6/2,,5,,8/1,,6,5,,7/4,,2,1,2,1,,
{16}3b/8b,,5b/4b,,1b/6b,,2b/8b,2/8h[48:13],,,{24}2,3,4,5-1[8:1],6,7,8,1,2,
{8}3-7[8:1]/5,2,3/1-5[8:1],8,1/7-3[8:1],6,5qq2[4:2]*pp8[4:2]/7,4,
{4},,,1/6qq1[8:4],
{8}2,3,2,,{16}2,3,4,5h[16:5],{8}8pp5[2:1],7,
{8}8,,4,,{16}1,2,3,4h[16:5],{8}7pp4[2:1],6,
{8}7,,3,,{16}1,2,3,4,1/5,8,7,6,
{16}5/2,4,3,2,1-4[8:1]/4,8,7,6,5/1,,,,{16}3,4,3,4,
{8}5/2-8[10:1],,7h[4:1],,5-1[8:1],6,5,,
{8}4-6[10:1],4,3h[4:1],,8-4[8:1],1,8,,
{16}2/6,,7,8,6,1,5,2,3/4,,2,1,3,8,4,7,
{8}5b>7[8:3]/6b>7[8:3],,,,,,3b/6b,,
{16}1-5[8:1]/5,,3,4,1,,7,7V53[4:1],,1/8,,3v6[8:1]/7,,,,,
{16}8-4[8:1],,1,1,8,,3,3V17[4:1],,4/5,,3/7v4[8:1],,,,,
{16}5-2[8:1],,6,6,5,,8,8,2h[8:1],,6,5h[8:1],,7,1h[8:1],,
{16}4,,2/6,,3>8[8:1]/5<8[8:1],,8-4[8:1],,,,,,,,8,,
{16}3/5,3,7,,2h[8:1]/4,,1,2,8,2,7,2,6-1[8:1],,3,3,
{8}6-4[10:1],4,2-6[8:1]/6-1[8:1],1,2/6,,{16}8,7/1,6/2,5/3,
{8}4w8[8:1],,4,,7<4[8:1]/3qq4[4:1],4/8,3/7,,
{16}8b,,3b/5b,3/5,,4b/7b,,1bw5[8:1],,2b/8b,2/8,,,,,,
{16}2/4h[8:1],,1,,3/7,,6,5,,5,7,,7h[8:1],,4,5,
{16}3h[8:1],,7,,2/5,,3,4,,4,2,,7/1h[8:1],,5,,
{16}3,4,3,,{24}6b/2h[12:1],5,,,,,6b/2h[12:1],5,4,,,,6b/2h[12:1],5,4,3,,,
{16}1s5[32:7],1,,,6<3[32:8],,,,,,,,4b,,,,
{24}6/4,5h[24:2],,,,,{16}2/8,,3/7,4/6,5,,2/8,,3/7,4/6,5,,
{16}3/7-3[8:1],,5/6,,7/3,,1,1h[16:3],,,4,2,6h[8:1],,2,,
{16}4/8,,7,3,5h[8:1],,2,6,4h[8:1],,8,1,7,,2/6,,
{16}1/8,,{24}2/1,3,4,5/7b,,,7/8,6,5,4/2b,,,3-7[8:1]/8,4,5,6,7,8,1b,,,
{1},,
E
