&title=インフェルノシティ (feat. はぁち)
&artist=Ponchi♪; はぁち
&first=0
&des=翠楼伍
&lv_5=14+
&inote_1=
&inote_5=(215)
{4},,
{16},,1x-4[8:1],,,,,,
{4},,,,,,,,,,,,,,,
{8}2v5[4:1],,5>5[16:19],
{4},,,,,,,
{8},4/5,4/5,4/5,4/5,6/3,6/3,6/3,6/3,1-5[8:1],8-4[8:1],1,8,,C,
{8},2q6[8:1]/6,,7,8,1<6[8:1],,4,3,2<7[8:1],,4-8[8:1],4,2-6[8:1],2,1-5[8:1],1,4b,,3,3,2,2,1,1,
{8}7<4[8:1],7,3>8[8:1],3,7-4[8:1],7,3-8[8:1],3,7p3[8:1],,2,1,8>3[8:1],,5,6,7>2[8:1],,5-1[8:1],5,7-3[8:1],7,8-4[8:1],8,5b,,6,6,7,7,8,8,2<7[8:1],2,6>3[8:1],6,2-7[8:1],2,6-3[8:1],6,1<4[8:10],1,2,,2,,2,,2,2,,2,2,,2,,2pp5[8:10],2,7,,7,,7,,7,7,,7,7,,7,,8-5[8:10],8,2,,2,,2,,2,2,,2,2,,2,,3h[8:2],,6,4,4,8,8,2,2,7/3,3p7[8:1]/7p3[8:1],,,,,
{16}1,8,7/2,,7x/2x,,
{8},3x,3x,,4,5x/2x,,6x,6x,5x,4>1[16:3]/7,,6,8x,,7/2,,6x,6x,,5,7x/4x,,3x,3x,4x,
{8}2x/5x<8[16:3],,3,1x,,7/2,,3x,3x,,5,6x/4x,,7x-4[8:1]/5x,7x,4x,2x,,8,6/3,2,7-3[8:1],7,1-5[8:1],1,8-4[8:1],8,2-5[8:1],2,
{8}7q3[4:1],,3q7[4:1],,7q3[4:1],,3,,1V35[4:1],1,5V71[4:1]/1,5,,1,,7x/3x,,1/5,1/5V71[4:1],,1V35[4:1],,5,,1b,,2/6,2-7[12:1]/6-3[12:1],,2/6,,1/5,,6/2,6V82b[8:3]/2,6/2V46b[8:2],6/2,,,,7V13[4:1],7,3V57[4:1]/7,3,,7,,8x/4x,,2/6,2/6,2/6,
{16}1,5,1,5,1,5,1,5,1-4b[8:12],,,,
{8},,,,,,5-8[16:5],,,,,,,,
{8}2/5,,3,4,2,,6/4,7,
{16}5,7,4,6,3,,,,
{8}1/8,,7,5,
{16}3,4,3,4,2,,,,
{8}1/8,7,6/4,,2/3,,,8,1,,7/2,,
{16}2,4,3,5,4,,6,,6h[4:1],,
{8},,7/5,8,1,2/4,,,6,4h[4:1],,8h[4:1],,2h[4:1],,7h[4:1],,3h[4:1],,8h[4:1],,5h[4:1],,1h[8:3],,,6,6h[8:9],,2h[8:7],,,,,,,,2b/6b,1b/5b,8b/4b,7b/3b,6b/2b,5b/1b,5b/1b,,6/2,1,
{16}4,3,4,3,5,4,5,4,7b,3,4,3,4,3,6b,2,3,2,3,2,5b,1x,3x,1x,3x,1x,4b,8,7,6,5,4,3,2,1,8,5,5,,,1/6,,2-6[8:1],4,3,,7-3[8:1]/2,,,,7/3,,,,5/4,,
{8},3,2/7,6,
{16}4,5,4,5,4-2-6-8[8:12],5,4,5h[8:12],,,,,
{8},,,,,,,,,,,
{8}7,,1b/8b-3[8:1],,4/8,
{16}2-6[8:1],,,,
{8}7,8-4[8:1],1,8/4,,3,1-6[8:1],,7,8-4[8:1],5,8/2-6[8:1],,7,8-3[8:1],,4/8,,2,2v5[12:1]/6,,2/6v1[12:1],,2v5[12:1]/6,,2/6,,1/8,,6,7/2,
{16}2,3,4,5,6,7,8/5x,,5x-1[8:1],,
{8},3-8[8:1],3,6,6-1[8:1],4,4,,
{16}2/5,,3,4,3,,7-4[8:1],,7,,3>5[8:2],,3,,3,,
{8},,
{16}8,7,6,5,
{8}2,2,4,4,3>8[8:1],,7,7,5<8[8:1],,2,,3p7[8:1],,4,4,6,,2/5,
{16}3,4,3,,2,,6/5,,1/2,,,,7-4[12:1]/3-8[12:1],,7x/3x,,7x/3x,,,,,,1,2,3,4,7,5,7,5,6,4,6,4,
{8}7-4[8:1],8,2-5[8:1],1,
{16}7,8,1,2,3,4,5b/1b-5[8:1],,,,1/5,,7,,,,6/5,,3,4,3,4,3,4,2b,5,4,5,4,5,1b,6,5,6,5,6,2b,7,6,7,6,7,3b,
{16}8,2,8,2,8,3,4,5,6,7,8,1b-6[8:1]/6b,,,,1/5,,7-4[8:1],,8,8,4,,3-7[8:1],,5,,3,,8,,8,,1-6[8:1],,3,3,1,,2v5[8:1],,5,,2/6,,6,,4,,8-4[8:1]/3,,2,2,8,,1>4[8:1],,1,,1<6[8:1],,
{8},1-4[8:1],,1-6[8:1],,1w5[8:1],,1b,,3/7,
{16}2,1,2,1,2,,
{8}3,3,4,2,6,7/1,2,4/3<6[8:1],3,7,7,
{16}3,4,3,4,2,,6,5,6,5,7,,3/4,,8/2,,,,7/5,,3,4,2,,6,5,7,3,2,1,8,7,6,,,,7/3,,6,,2,,8,1,8,,7/2,,,,6,,7/2,,3,,7/2,,4,3,4,3,4,,2,,2q6[4:1],,,,6bq2[4:1],,,,2bq6[4:1],,,,6bq2[4:1],,,,8,,8h[8:2],,,,,,{12}1/8,,2/4,,7/5,,,4/5,,4/2,,1/8,,7/5,,4/5,,2/4,,5/4,,7/5,,1/2,,3/4,,6/5,,7-4[8:4]/8,,,,,,2-5[8:4],,,,{16},,1,,,,,,8,,,,,,3,,,,2bh[8:13]/6bh[8:13],,,,,,,,,,,,,,,,,,,,,,,,,,,,,,
{32}Cf/2xb,3xb,4xb,5xb,6xb,7xb,8xb,1xb,2xb,3xb,4xb,5xb,6xb,7xb,8xb,1xb,2xb,3xb,4xb,5xb,6xb,7xb,8xb,1xb,2xb,3xb,4xb,5xb,6xb,7xb,8xb,1xb,2xb,3xb,4xb,5xb,6xb,7xb,8xb,1xb,2xb,3xb,4xb,5xb,6xb,7xb,8xb,1xb,2xb,3xb,4xb,5xb,6xb,7xb,8xb,1xb,2x,,,,,,,,
{8}A6/E6/E5/A4,,3,2,1q5[8:1],,5,6,7<4[8:1],,3-7[8:1],3,1-5[8:1],1,4-8[8:1],4,6,,5h[8:1],4h[8:1],6h[8:1],3h[8:1],7h[8:1],2h[8:1],
{16}8,7,6,5,1,2,3,4,8,1,2,3,1,8,7,6,
{8}8b,,3,2,1q5[8:1],,5,6,7<4[8:1],,3-7[8:1],3,1-5[8:1],1,4-8[8:1],4,6,,5h[8:1],4h[8:1],6h[8:1],3h[8:1],7h[8:1],2h[8:1],
{16}8,7,6,5,2,3,4,5,7,6,5,4,1,2,3,4,6b-3[8:12],,
{8},,,,,,,,,,,,,,6/3,,4/5,4,4,6/3,6,6,2/7,2,2,8/1,8,8,1/2,7/5,4/3,8/Cf,
