&title=乙女解剖 (TeddyLoid Alllies Remix)
&artist=DECO*27×TeddyLoid
&first=0
&des=心白-HW
&lv_7=協
&inote_7=(138){4},,,,{1}7h[2:7],
2h[2:5],
5h[2:3],
4h[2:1],
2h[2:7],
7h[2:5],
4h[2:3],
5h[2:1],
{16}3/5,5,6,5,5/3xh[2:3],6,5,5,6,5,5,6,5,5,6,5,
5,6,5,5,4/6,5,5,6,5,5,6,5,4/5,6,5,5,
6/4,4,3,4,4/6xh[2:3],3,4,4,3,4,4,3,5/4,4,3,4,
4,3,4,4,5/3,4,4,3,4,4,3,4,5/4,3,4,4,
2/7,,,5h[16:15],{4}7h[8:5],{8}4/2,4/2,{4}4h[8:5]/2h[8:7],
{8},,,,,,,5b/4b/2b/7b,
{1}E3/E4/E7/E6,
{8},4/3/5/6,2/1/7/8,2/1/7/8,7/6/2/3,6/5/4/3,{4}A6/D6f/A5/A3/D4f/A4,
{2}5h[4:1]/7h[16:11]/2-6[2:1],5h[8:3],
{8}2h[4:1]/6-1[2:1]/8-5[2:1],3,4h[4:1],3,2h[8:1],3,{4}4/2,
{2}5h[4:1]/7h[16:11]/2-6[2:1],5h[8:3],
{8}2h[4:1]/6-1[2:1]/8-5[2:1],3,4h[4:1],3,2h[8:1],3,{4}4/2,
{2}3h[4:1]/1h[16:11]/6-2[2:1],3h[8:3],
{8}8h[4:1]/4-1[2:1]/2-5[2:1],7,6h[4:1],7,8h[8:1],7,{4}6/8,
{2}3h[4:1]/1h[16:11]/6-2[2:1],3h[8:3],
{8}8h[4:1]/4-1[2:1]/2-5[2:1],7,6h[4:1],7,8h[8:1],7,{4}6/8,
4h[4:15]/2-7[8:1],8h[2:7]/6-3[8:1],{8},,1,1h[8:1],
,1,2,3,,5,6,7,
{4}7v2[8:1],3v6[8:1],{8}5,5,5,5h[2:1],
,1,1,1,,,{4}B4/E5/E4/E1/B8/E8,
{12}3/6,4/5,2/7,6/3,5/4,7/2,3/6,4/5,2/7,6/3,5/4,7/2,
{16}3/8,4/7,3/8,4/7,{8}3h[8:1]/8h[8:1],4/7,{16}6/1,5/2,6/1,5/2,{8}6h[8:1]/1h[8:1],5/2,
,1h[4:1]/5h[4:1],2,3,4h[8:3]/8h[8:3],6,7,1/5,
2/4/7/5,7/5/4h[2:1]/2h[2:1],,5h[8:3]/7h[8:3],,,,,{4}5h[4:15]/7-2[8:1],
1h[2:7]/3-6[8:1],{8},,8,8h[8:1],
,8,7,6,,4,3,2,
{4}2v7[8:1],6v3[8:1],{8}4,4,4,4h[2:1],
,8,8,8,,,{4}B5/E5/E6/E1/B1/E2,
{12}6/3,5/4,7/2,3/6,4/5,2/7,6/3,5/4,7/2,3/6,4/5,2/7,
{16}6/1,5/2,6/1,5/2,{8}6h[8:1]/1h[8:1],5/2,{16}3/8,4/7,3/8,4/7,{8}3h[8:1]/8h[8:1],4/7,
,8h[4:1]/4h[4:1],7,6,5h[8:3]/1h[8:3],3,2,8/4,
,5h[2:1]/7h[2:1],,4h[8:3]/2h[8:3],,,,,{2}4h[4:7]/7h[2:1]/3qq6[2:1],
{4}B5,B5,
{2}7h[2:1]/3qq6[2:1],{4}B5,B5,
{2}5h[4:7]/6pp3[2:1],{4}2h[4:1]/B4,B4,
{2}2h[2:1]/6pp3[2:1],{4}B4,B4,
6x/7x/2x/3xq5[4:1],7x/6x/2x,3x/7x/2x/6xp4[4:1],2x/3x/7x,
{8}3x/7,3/7x,6/2x,6x/2,{16}7/3x,6x/2,7/3x,6x/2,7/3x/8/4x,6x/2/5x/1,7/3x/8/4x,6x/2/1/5x,
,,{8}1b/8b/5b/4b,6bv8b[12:1]/2bv4b[12:1]/7bv5b[12:1]/3bv1b[12:1],4b/5b/8b/1b,{4}3b/6b/7b/2b,7-5[12:1]/8-5[12:1],
8/7/2-4[12:1]/1-4[12:1],2/1,{8}8/7,7h[2:1]/8h[2:1],2/1,2h[4:1]/1h[4:1],
,,,7/6/2/3,{4}7/6/2/3,6-8[12:1]/5-8[12:1],
5/6/3-1[12:1]/4-1[12:1],3/4,{8}5/7,7h[2:1]/5h[2:1],2/4,2h[4:1]/4h[4:1],
,,,5/1,5/1,6/2,6/2,7/3,
{4}7-2[8:1]*-1[8:1]/3-6[8:1]*-5[8:1],7/3,{8}2/6,1/5,8/4,7-1[8:1]/3-5[8:1],
,7-2[8:1]/3-6[8:1],,7-3[8:1]/3-7[8:1],,3/7,,5b/4b/2b/7b,
{1}E7/E6/E3/E4,
{8},4/3/5/6,2/1/7/8,2/1/7/8,7/6/2/3,6/5/4/3,{4}A6/D6f/A5/A3/D4f/A4,
1-4[8:9],{8}1/8/5,7/6,1h[16:3]/7h[8:3]/6h[8:3],,,1,
8/5/1-4[8:1],7/6,{4}7/1/6,{12}1/4/8<6[8:1],2,3,4/5<7[8:1],3,2,
{4}1x/4x,{16}8,7,6,5h[16:7],{8}1h[16:3]/4h[16:3],8,8,8/1/4,
,4/3/5/6,2/1/7/8,2/1/7/8,7/6/2/3,6/5/4/3,{4}6/5/4/3,
8-5[8:9],{8}8/1/4,2/3,8h[16:3]/2h[8:3]/3h[8:3],,,8,
1/4/8-5[8:1],2/3,{4}8/2/3,{12}8/5/1>3[8:1],7,6,5/4>2[8:1],6,7,
{4}8x/5x,{16}1,2,3,4h[16:7],{8}8h[16:3]/5h[16:3],1,1,1/8/5,
,5/6/4/3,7/8/2/1,7/8/2/1,2/3/7/6,3/4/5/6,{4}3/4/5/6,
4h[4:15]/2-7[8:1],8h[2:7]/6-3[8:1],{8},,1,1h[8:1],
,1,2,3,,5,6,7,
{4}7v2[8:1],3v6[8:1],{8}5,5,5,5h[2:1],
,1,1,1,,,{4}B4/E5/E4/E1/B8/E8,
{12}3/6,4/5,2/7,6/3,5/4,7/2,3/6,4/5,2/7,6/3,5/4,7/2,
{16}3/8,4/7,3/8,4/7,{8}3h[8:1]/8h[8:1],4/7,{16}6/1,5/2,6/1,5/2,{8}6h[8:1]/1h[8:1],5/2,
,1h[4:1]/5h[4:1],2,3,4h[8:3]/8h[8:3],6,7,1/5,
,7/5/4h[2:1]/2h[2:1],,5h[8:3]/7h[8:3],,,,,{2}4h[4:7]/7h[2:1]/3qq6[2:1],
{4}B5,B5,
{2}7h[2:1]/3qq6[2:1],{4}B5,B5,
{2}5h[4:7]/6pp3[2:1],{4}2h[4:1]/B4,B4,
{2}2h[2:1]/6pp3[2:1],{4}B4,B4,
6x/7x/2x/3xq5[4:1],7x/6x/2x,3x/7x/2x/6xp4[4:1],2x/3x/7x,
{8}3x/7,3/7x,6/2x,6x/2,{16}7/3x,6x/2,7/3x,6x/2,7/3x/8/4x,6x/2/5x/1,7/3x/8/4x,6x/2/1/5x,
{32}8bx/4bx,E8/E4,B7/B3,B6/B2,{8}E6/E2,,,,,,,{4}3xh[1:2]/2xh[1:2],
E8/B7/B6/E6,E8/B7/B6/E6,E8/B7/B6/E6,
E8/B7/B6/E6/E3,E8/B7/B6/E6,E8/B7/B6/E6,E8/B7/B6/E6,
6xh[1:2]/7xh[1:2],E2/B2/B3/E4,E2/B2/B3/E4,E2/B2/B3/E4,
E2/B2/B3/E4/E7,E2/B2/B3/E4,E2/B2/B3/E4,E2/B2/B3/E4,
3xh[1:1]/2xh[1:1],E6,E7,E8,
6xh[4:3]/7xh[4:3],E4,E3,E2,
{32}8x,7,6,5h[32:45],{4},,,{16},,{32}1x,
2,3,4h[32:13],{4},,,{16},,{4}7/2/5xh[4:1]/4xh[4:1],
7/2,7/2/5xh[16:3]/4xh[16:3],{8}2/7,5xh/4xh,
{4}7/2,7/2,7/2,7/2,
7/2/5xh[4:1]/4xh[4:1],7/2,7/2/5xh[16:3]/4xh[16:3],{8}7/2,5xh/4xh,
{4}7/2,7/2,7/2,7/2,
{8}6/2,6/2,2/6,2/6,7/3,7/3,3/7,3/7,
6/2,7/3,6/2,3/7,6/5/2/1,7/8/3/4,2/1/6/5,3/4/8/7,
{16}1/5,2/6,3/7,4/8,1/5,2/6,3/7,4/8,1/5,2/6,3/7,4/8,1/5,2/6,3/7,4/8,
,,{8}6b/5b/2b/1b,7b/6b/3b/2b,6b/7b/3b/2b,7b/8b/4b/3b,7b/8b/4b/3b,{4}1b-6[8:1]/8b<6[8:1]/5b-2[8:1]/4b>2[8:1],
1b>3[8:1]/8b-3[8:1]/5b<7[8:1]/4b-7[8:1],1b-6[8:1]/8b<6[8:1]/5b-2[8:1]/4b>2[8:1],1b>3[8:1]/8b-3[8:1]/5b<7[8:1]/4b-7[8:1],1b-6[8:1]/8b<6[8:1]/5b-2[8:1]/4b>2[8:1],
1b>3[8:1]/8b-3[8:1]/5b<7[8:1]/4b-7[8:1],1b-6[8:1]/8b<6[8:1]/5b-2[8:1]/4b>2[8:1],1b>3[8:1]/8b-3[8:1]/5b<7[8:1]/4b-7[8:1],1b-6[8:1]/8b<6[8:1]/5b-2[8:1]/4b>2[8:1],
1b>3[8:1]/8b-3[8:1]/5b<7[8:1]/4b-7[8:1],1b-6[8:1]/8b<6[8:1]/5b-2[8:1]/4b>2[8:1],1b>3[8:1]/8b-3[8:1]/5b<7[8:1]/4b-7[8:1],1b/4b/5b/8b,
{8},5b/4b/1b/8b,{4}1bh[16:3]/4bh[16:3]/5bh[16:3]/8bh[16:3],{16}5bx/4bx/8bx/1bx,5bx/4bx/8bx/1bx,5bx/4bx/8bx/1bx,5bx/4bx/8bx/1bx,{4}1b-6[8:1]/8b-6[8:1]/5b-2[8:1]/4b-2[8:1],
1b-3[8:1]/8b-3[8:1]/5b-7[8:1]/4b-7[8:1],1b-6[8:1]/8b-6[8:1]/5b-2[8:1]/4b-2[8:1],1b-3[8:1]/8b-3[8:1]/5b-7[8:1]/4b-7[8:1],1b-6[8:1]/8b-6[8:1]/5b-2[8:1]/4b-2[8:1],
1b-3[8:1]/8b-3[8:1]/5b-7[8:1]/4b-7[8:1],1b-6[8:1]/8b-6[8:1]/5b-2[8:1]/4b-2[8:1],1b-3[8:1]/8b-3[8:1]/5b-7[8:1]/4b-7[8:1],1b-6[8:1]/8b-6[8:1]/5b-2[8:1]/4b-2[8:1],
1b-3[8:1]/8b-3[8:1]/5b-7[8:1]/4b-7[8:1],1b-6[8:1]/8b-6[8:1]/5b-2[8:1]/4b-2[8:1],1b-3[8:1]/8b-3[8:1]/5b-7[8:1]/4b-7[8:1],8b/5b/4b/1b,
{8},7/6/3/2,8/5/4/1,7/6/3/2,8/1/4/5h[8:1],4,{4}4/5h[8:1]/1b-6[8:1]/8b<6[8:1],
4/5h[4:1]/1b>3[8:1]/8b-3[8:1],4/1b-6[8:1]/8b<6[8:1],{8}4/5h[4:1]/1b>3[8:1]/8b-3[8:1],4,4/1b-6[8:1]/8b<6[8:1],4/5h[4:1],
1b>3[8:1]/8b-3[8:1],4,1b-6[8:1]/8b<6[8:1],4,4/5h[8:1]/1b>3[8:1]/8b-3[8:1],4,4/5h[8:1]/1b-6[8:1]/8b<6[8:1],4,
{4}4/5h[4:1]/1b>3[8:1]/8b-3[8:1],4/1b-6[8:1]/8b<6[8:1],{8}4/5h[4:1]/1b>3[8:1]/8b-3[8:1],4,4/1b-6[8:1]/8b<6[8:1],4/5h[4:1],
1b>3[8:1]/8b-3[8:1],4,1b-6[8:1]/8b<6[8:1],4/5h[4:1],4/1b>3[8:1]/8b-3[8:1],4,4/5h[8:1]/1b-6[8:1]/8b<6[8:1],4,
{4}1b>3[8:1]/8b-3[8:1],4/5h[8:3]/1b-6[8:1]/8b<6[8:1],{8}4/1b>3[8:1]/8b-3[8:1],4,4/5h[8:1]/1b-6[8:1]/8b<6[8:1],4,
1b>3[8:1]/8b-3[8:1],4/5h[4:1],1b-6[8:1]/8b<6[8:1],4,{4}1b>3[8:1]/8b-3[8:1],{8}4/5h[8:1]/1b-6[8:1]/8b<6[8:1],4,
1b>3[8:1]/8b-3[8:1],4/5h[8:1],4/1b-6[8:1]/8b<6[8:1],4/5h[8:3],1b>3[8:1]/8b-3[8:1],4,{4}8b/1b/4,
8bxh[8:1]/1bxh[8:1]/5bxh[8:1]/4bxh[8:1],1bxh[8:1]/8bxh[8:1]/5bxh[8:1]/4bxh[8:1],{8}8/4/5/1h[8:1],8,{4}8/1h[8:1]/5b-2[8:1]/4b>2[8:1],
8/1h[4:1]/5b<7[8:1]/4b-7[8:1],8/5b-2[8:1]/4b>2[8:1],{8}8/1h[4:1]/5b<7[8:1]/4b-7[8:1],8,8/5b-2[8:1]/4b>2[8:1],8/1h[4:1],
5b<7[8:1]/4b-7[8:1],8,5b-2[8:1]/4b>2[8:1],8,8/1h[8:1]/5b<7[8:1]/4b-7[8:1],8,8/1h[8:1]/5b-2[8:1]/4b>2[8:1],8,
{4}8/1h[4:1]/5b<7[8:1]/4b-7[8:1],8/5b-2[8:1]/4b>2[8:1],{8}8/1h[4:1]/5b<7[8:1]/4b-7[8:1],8,8/5b-2[8:1]/4b>2[8:1],8/1h[4:1],
5b<7[8:1]/4b-7[8:1],8,5b-2[8:1]/4b>2[8:1],8/1h[4:1],8/5b<7[8:1]/4b-7[8:1],8,8/1h[8:1]/5b-2[8:1]/4b>2[8:1],8,
{16}5b<7[8:1]/4b-7[8:1],,,8,{4}8/1h[8:3]/5b-2[8:1]/4b>2[8:1],{8}8/5b<7[8:1]/4b-7[8:1],8,8/1h[8:3]/5b-2[8:1]/4b>2[8:1],8,
5b<7[8:1]/4b-7[8:1],8,5b-2[8:1]/4b>2[8:1],8/1h[4:1],5b<7[8:1]/4b-7[8:1],8,5b-2[8:1]/4b>2[8:1],8/1,
{4}1xh[4:1]/8xh[4:1]/5b<7[8:1]/4b-7[8:1],5b-2[8:1]/4b>2[8:1],1xh[16:3]/8xh[16:3]/5b<7[8:1]/4b-7[8:1],{8}4b/5b,1x/8x,
1xh[4:3]/8xh[4:3],5/4,3/6,7/2,7/2,3/6,{4}5-3[1:3]/4-7[1:3],
{1},,,{8}1xh[4:3]/8xh[4:3],
5/4,3/6,7/2,7/2,3/6,{4}5-3[1:3]/4-7[1:3],
,,,,,,,,,,,,,,{2}1h[#0.8695679],
(27.6){120}A8/A2/5v8[64:1]*v2[64:1],A7/A3,{60}A6/A4,,,,,,,,,,,,,,{4}A5,
E
