&title=Frey's Philosophy
&artist=Powerless
&first=0
&des=鴆ホルダー
&des_6=鴆ホルダー
&lv_6=15
&inote_6=(200){4},{8},,,,,,,,5/4,
4/5,,,,,8/1,
8/1<2[8:5],,,,,,,,,8/1,
1/8,,,,,4/5,
5/4<3[8:5],,,,,,,,,{4}5h[2:1],
,1h[4:1],
{24},,,,,,1/5h,2,3,4,5,6,7/3h,8,1,2,3,4,5/1h,6,7,8,1,2,
{4}3-6[8:1]/7-2[8:1],3b/7b/Cf,,6h[2:1],
,5h[2:1],{16},,,,4,3,2,1,
8,7,6,5,{4}4/3h[4:1],{8}6,4/5,,4,
7/5,6,,3,6/2,5,,4,
5/7,6,4,3,4/5,6,,4,
7/3,6,,5,4/2,3,{16}6,5,{8}6,
5/4,3/6,7b/2b,8,1/6,5,3/8,2,
3/6,4/5-1[8:1],,5/3-7[8:1],,3/8<5[8:1],{16},,8/1,2,
{8}3,4,{4}2h[4:1],{8}4,7h[4:1],,5,
{4}2h[4:1],{8}5,4/7,{16}6,5,{8}6,2/5,{16}3,4,
3,4,3,4,{4}5b/2b>5[8:1],2/8-4[8:1],{8}8/1,2-5[8:1],
3,2b/6-8[8:1],,6b/2-6[16:3],,2b/1-5[8:1],{16},,4/1,3,
{8}2,6,6<1[8:1],4,3,2>5[8:1],,1,
8,6b/7b-3[8:1],,5-1[8:1],4,5,,2,
3/5,4/6,2b/7b<4[8:1],8,7/1-5[8:1],8,1/7,8-4[8:1],
1,8b/2-6[8:1],,2b/7-3[16:3],,7b/8-4[8:1],{16},,5/8,6,
{8}7,2,2/7,2/7,3/4,4/3,4/5,4/5,
5/6,5/6,{12}7,7,7,2,2,2,4,4,4,
{24}5-1[8:1],6,7,8,1,2,{4}Cf/3>6[8:3],{16},,6,5,{4}4h[8:1],
4-7[8:1],{8}4,2>5[8:1],8,2,1p5[8:1],4,
1,3,{4}6<3[8:3],{16},,3,4,{4}5h[8:1],
5-2[8:1],{8}5,7<4[8:1],1,7,8q4[8:1],5,
8,6,{4}5>8[8:3],{16},,8,7,{4}6h[8:1],
6-1[8:1],{8}6,4-7[8:1],8,4,1p5[8:1],2,
1,3,{4}4<1[8:3],{16},,1,2,{4}3h[8:1],
3-8[8:1],{8}3,5-2[8:1],1,5,8q4[8:1],7,
8,6,{4}5b/7-3[8:1],{16},,2,1,{4}8h[8:1],
8-4[8:1],{16}8b/5,6,7,8,1-5[8:1],2,3,4,5/1b,6,7,8,
1,2,3,4,{4}5b/2-6[8:1],{16},,7,8,{4}1h[8:1],
1-5[8:1],{16}1b/4,3,2,1,8-4[8:1],7,6,5,4/8b,3,2,1,
8,7,6,5,{4}4b/7-3[8:1],{16},,2,1,{4}8h[8:1],
8-4[8:1],{16}8b/5,6,7,8,1,2,3,4,5/1b,6/2,7/3,8/4,
1,2,3,4,{4}5b/2-6[8:1],{16},,7,8,{4}1h[8:1],
1-5[8:1],{24}5/1,4,3,2,1,8,7,6,5,4,3,2,{12}1,7,2,
6,3,5,4b/7b,{48},,{16}6,5,{8}6,7/4,{16}6,5,{8}6,
5/2,{16}3,4,{8}3,2/5,{16}3,4,{8}3,{16}6,5,7,3,
4,2,{8}6,1b/7b,{16}3,4,{8}3,2b/8b,{16}3,4,{8}3,
8b/2b,{16}6,5,{8}6,7b/1b,{16}6,5,{8}6,{16}3,4,2,6,
5,7,{8}1,{24}2b/8bh[6:1],3,4,5,,,,,,7b/1bh[6:1],6,5,{4}4,
{24}2b/8bh[6:1],3,4,5,,,,,,7b/1bh[6:1],6,5,{4}4,{24}6bh/2bh,3,4,5,6,7,
{4}4bh/8bh,{24}7b/2bh[24:5],6,5,4,{12}3,{24},,,2b/7bh[24:5],3,4,5,6,,,,,7b/2bh[24:5],
6,5,4,{6}3,{24},2b/7bh[24:5],3,4,5,6,,,,,1,8,1,8,1,8,
2,7,2,7,2,7,{4}3b/6b-1[8:1],6-4[8:1]/3-7[8:1],6/3,
{16}8,1,2,3,7,6,5,4,3,2,1,8,7/2,3,4,5,
6,7,8,1,{8}2/7,4,6-8[8:1],5,6,2-4[8:1],
1-5[8:1],2,1,8-4[8:1],7-5[8:1],8,{4}7-3[8:1],
7/2-8[8:1],6b/2b-6[8:1],2-4[8:1]/5-1[8:1],2/5,
{16}8,7,6,5,2,3,4,5,6,7,8,1,2/7,6,5,4,
3,2,1,8,{8}7/2,3-8[8:1],4,5,6-3[8:1],7,
8,1-5[8:1],2,3bh[4:3],{16},,,,,,,,,,2,
1,8,7,{24}3/6,4,5,6,7,8,1,2,3,{4}Cf/4-8[8:1],
{8}2-5[8:1],,,7,{4}6/8,{8}1<6[8:1],2,
3,4-8[8:1],,4/6,{4}6<2[16:3],{16}6/2,3,4,5,
6,7,8,1,{8}2-6[8:1],3,{4}2/4v7[8:1],{8}8/4,8>3[8:1],
,8/4,5,6,7-5[8:1],8,7b,2-4[8:1],
1,2b,7-4[8:1],8,{4}7b,{8}2-6[8:1],3,
4-8[8:1],5,1,2,{16}7,2,6,3,{8}5-1[8:1],4,
3-8[8:1],4,{16}3/7-3[8:1],6,{8}5,7/1>4[8:1],2,{16}1/8-4[8:1],7,{8}6,
8/1,2,{12}2,5,3,7,4,6,5-1[8:1],{24},,,,{8}5/7-4[8:1],
,,1,{4}2/5,{8}8-3[8:1],7,
6,5-1[8:1],,5/3,{4}3>7[16:3],{16}3/7,6,5,4,
3,2,1,8,{8}7-3[8:1],5,{4}7/4v1[8:1],{8}4/8,8v5[8:1],
,8/5,4,3,2-6[8:1],1,2b,7-4[8:1],
8,7b,1-5[8:1],3,{4}1b,{8}7-3[8:1],6,
5-1[8:1],4,{16}2,3,{8}4,{16}8,7,{8}6,{12}1,4,3,
7,5,6,{48}8,,,7,,,{16}1,6,2,5,3,4,2,1,3,8,
{8}4,{32}5,6,7,8,{8}1,2/7,3/6,5-8[8:1]/4-1[8:1],{32},,,,,E5,Cf,E1/B8/B1/B7/B2,
,,,,,,,,{8}1/8,7/2,{16},,3,4,{4}5/2,
{16}6,5,{8}7/4,{16},,3,4,2,5,1,6,{8}7b/8b,8,
7,7,{16}8,1,2,3,4/5,6,{8}7h[4:1]/Cf,{16},,1,8,
2,7,{8}1h[8:1],8b,{16}7,5,6,3,{8}4,1b/6,{16}2,5,
3,4,2,1,{8}3/8b,{16}7,4,6,5,7,8,{8}1b/6,{16}2,4,
3,6,5,7,{12}2/8,2/8,2/8,7/3,7/3,7/3,4/6h[4:1],{48},,,,,,,,{16}5,
4,3,2,1/8,7,6,5,4/8,7,6,5,1,8,7,6,
5/4,3,2,1,8/4,3,2,1,8/4,7/3,6/2,5/1,{4}4/8-4[8:1],
{8},6,3/5,3/5,{16}3,4,3,4,{8}5/2,3/6,
{4}4/7h[4:1],{16}5,6,7,8,1/5h,2,3,4,{4}5/7h,
{8}2/5,2/5,3/6,3/6,4/7,{24}6,5,6,{8}5,4-8[8:1],
7-4[8:1],4,7,1,5,{24}2/6,7/3,8/4,{4}1b/5b,
{8}5/1,5/1,8/4,4/8,3/7,3/7,{24}2/6,1,8,7,6,5,
4,3,2,1/7,6,5,4,3,2,1,8,7,6/2,1,8,7,6,5,2,3,4,5,6,7/1,
2,3,4,5,6,7,8,1,2,3,4,2,3,4,5,1,2,3,4,5,6,7,8,1,
2,6,2,6,2,6,{32}3,4,5,4,8,7,6,7,5,4,3,2,1,8,7,6,5,4/6,3/7,2/8,{8}Cf`1,
,,,,,,{4}C/B1/B8/E1/D1,
,,,C/B8/B1/E1/B2/A2,
,,,C/B8/B1/E1/B3/A3,
,,,C/B8/B1/E1/B4/A4,
,,,E1/B8/B1/C/B5/A5,
,,,B8/E1/B1/C/B6/A6,
,,,E1/B8/B1/C/B7/A7,
,,,1/7h[4:1],
{8}5,3h[4:1],,4,3,5/2h[4:1],,1,
2,8/3,,7,5,6,3,4,
2,2/B3/E4,,7,7,7/B6/E6,,2,
8,1/7h[4:1],,5,6,6,2,4,
3,5,4,6,5,7h[4:1],,1h[4:1],
,3h[4:1],,5h[4:1],,6,6,3,
8,1,7,2,B7,B2,{4}5bh[6:5],
{24},,,,,,,,,,,,,,4,3/6,7/2bh[12:37],8,{4}1b,
E
