&title=Wings of Courage ~空を超えて~
&artist=川田麻美
&first=0
&des=AMMR
&lv_5=13+
&inote_5=(160){1},,
{1}6>3[2:1],
{1}3<7[16:9],
{1}7<1[8:5],
{1}1>8[16:11],
{4}3-1[8:1],4,5-7[8:1],4,
{4}3-1[8:1],5-7[8:1],3-8[8:1],5-8[8:1],
{8}4,,37,6<1[8:1]/4>1[8:1],,64,,,
{16}5b/3b,,,,26,,1,7,8,,8,,6-4[8:1]/2,,,,
{8}3-8[8:1],3,6,6>3[8:1],,1<6[8:1],,4>1[8:1],
{8},5pp4[8:3],,8,1,2,2-5[8:1],,
{8}6-1[8:1],6,3,3<6[8:1],,8>3[8:1],,5qq4[4:1],
{8},8,7,6V47[4:1],,3,3-8[8:1],,
{8}5-8[8:1],5,2,2>5[8:1],,7>2[8:1],,4<7[8:1],
{8},8pp7[8:3],,6,5,4,4h[4:1],,
{16}8,,8,,76,5,4,3,2,,8,,65,4,3,2,
{16}1,,7,,45,3,2,1,8,,5,,3-5[8:1],,8,,
{8}6-1[8:1],7,4,3<6[8:1],,3/8>3[8:1],,8/5<8[8:1],
{8},5/4qq5[8:3],,1,8,7,7-4[8:1],,
{8}3-8[8:1],2,5,6>3[8:1],,6/1<6[8:1],,1/4pp5[4:1],
{8},1,2,3V52[4:1],,8,6-1[8:1],,
{8}4-1[8:1],3,6,7<4[8:1],,7/2<7[8:1],,2/5>2[8:1],
{8},5/8v3[8:1]*<5[8:1],,8b,,2-7[8:1]/6-3[8:1],37,2b/6b,
{8},48,26,,34,45,56,,
{16},,3,5,{8}4,56,3,4,5b/6b,,
{2}3h[4:5]/4-2[8:1],4-6[8:1],
{8}4>8[4:1],,,,4,6,5,7h[8:11],
{2}5-8[8:1],5-2[8:1],
{8}5<3[16:5],,,,,5,4,3,
{8}2-6[8:1],4,2,,1-6[8:1],6-2[8:1],1,4,
{8},4-8[8:1],8V26[4:1],4,,7,7,,
{8}5p1[8:1],7,5,,6<1[8:1],1>4[8:1],6,4,
{8},1qq4[8:3],7,1,,5,5,,
{2}6h[4:5]/5-7[8:1],5-3[8:1],
{8}5<1[4:1],,,,5,3,4,2h[8:11],
{2}4-1[8:1],4-7[8:1],
{8}4>6[16:5],,,,,4,5,6,
{8}7-3[8:1],5,7,,8-3[8:1],3-7[8:1],8,5,
{8},5-1[8:1],1V73[4:1],5,,2,2,,
{8}4q8[8:1],2,4,,3>8[8:1],8<5[8:1],3,5,
{16},,{24}8,1,2,{16}3,,5,7,5,,46,,3,5,3,5,
{8}2,4/2-4[8:1],,2h[4:1],,5-7[8:1],,5h[4:1],
{8},8,8>4[4:1],,7,7h[8:3],,,
{8}5,5/7-5[8:1],,7h[4:1],,4-2[8:1],,4h[4:1],
{8},1,1<4[16:5],,2,2h[8:3],,,
{8}3,3,2/4-7[8:1],,3-8[8:1],,7,6-1[8:1],
{8},4,5-2[8:1],,1-4[8:1],,5p4[4:3],6,
{1}7h[4:3],
{16}1h[8:1]/2h[8:1],,,8h[8:1]/3h[8:1],,,74,,1h[8:1]/6h[8:1],,,2h[8:1]/5h[8:1],,,34,,
{8}12,38,47,5-2[8:1]/6-1[8:1],,56,,3bV57[16:3]/4bV28[16:3],
{8},,,,1-6[8:1],6<4[4:1],1,4V62[4:1],
{16}5b-2[8:1],,,,,,,,7-3[8:1],,3>5[4:1],,7,,5V38[4:1],,
{16}4-7[8:1],,,,,,,,3-6[8:1],,6>8[4:1],,3,,8>7[24:7],,
{16}7bp2[6:1],,,,,,,,1p5[8:1],,,,4,,2,,
{16}8q4[8:1]/4,,,,8<5[8:1]/6,,,,8>3[8:1]/2,,,,8p4[8:1]/5,,,,
{16}8/3>5[4:1],,,,35,,,,,,6V42[8:1],,2,,6,,
{16}1-4[8:1],,7-4[8:1],,,,,,,,8bV24[8:1],,,,7b,,
{16}6-2[8:1],,5,,6,,4,,3-8[8:1],,4,,3,,5,,
{16}6-1[8:1],,5-2[8:1],,6,,5,,8-3[8:1],,3>5[4:1],,8,,5V37[4:1],,
{16}4b-8[8:1],,,,,,,,2-6[8:1],,6<4[4:1],,2,,4V61[4:1],,
{16}5-2[8:1],,,,,,,,7-4[8:1],,4<2[4:1],,7,,1,,
{16}3b-7[8:1],,,,3b,,8b>3[8:1],,,,5bV72[16:3]*V36[16:3]/8b,,,,5b,,
{16},,,,1<6[8:1]/5>2[8:1],,,,5-1[8:1]/1,,,,5<8[8:1]/1,,3,,
{16}5>2[8:1]/8,,,,5q1[8:1]/3,,,,5p1[8:1]/7,,,,4q8[8:1]/5,,,,
{16}4>1[8:1]/7,,,,4<7[8:1]/2,,,,4p8[8:1]/6,,,,43,,,,
{16}3,6,2,5,1,4,8,3,7,,84,,84,,{24}26,37,48,
{16}1b/5b,,,,85,,3bqq4[4:1]*qq4[4:1]/6bpp5[4:1]*pp5[4:1],,,,3b/6b,,,,,,
{16}7-3[8:1],,5,,7,,1,,2-6[8:1],,4,,2,,8<3[4:1],,
{16},,3,,2,,1,,8-4[8:1],,,7,8>3[8:1],,6,,
{16}8/5-1[8:1],,,,5/7<4[8:1],,,,7-3[8:1],,2,,7,,5qq6[16:5],,
{16},,6,,7,,8,,1-5[8:1],,,2,1<6[8:1],,3,,
{16}1/4-8[8:1],,,,4/2>5[8:1],,,,2qq8[8:1],,7,,2,,4,,
{16}15,,,,6>2[4:1],,,,2<6[4:1],,,,6,,,,
{16}3-7[8:1],,4,,3,,4,5,6-1[8:1],,5,,6,,5,4,
{16}3-8[8:1],,4-7[8:1],,3,,4,,1-6[8:1],,6<4[4:1],,1,,4V61[4:1],,
{16}5b-2[8:1],,,,,,,,7-3[8:1],,3>5[4:1],,7,,5V37[4:1],,
{16}4-8[8:1],,,,,,,,2-5[8:1],,5>7[4:1],,2,,8,,
{16}6b-2[8:1],,,,6b,,1b<6[8:1],,,,4bV25[16:3]*V61[16:3]/1b,,,,4b,,
{16},,,,1<6[8:1]/5,,,,1pp3[8:1]/3,,2,,4q8[8:1]/1,,,,
{16}4>1[8:1]/6,,,,4<7[8:1]/2,,,,4p8[8:1]/7,,,,1/4,,3,,
{16}5-1[8:1]/7,,,,5<8[8:1]*>2[8:1]/3,,,,5q1[8:1]*p1[8:1],,,,5,,,,
{16}3,7,3,7,5,6,5,6,1,5,1,5,3-7[8:1],4,3,4,
{8}3b,,84,{24}4b/8b,15,26,37,,,8b/4b,73,62,{4}5q3[32:5]/1q7[32:5],
{1}1b<1[2:7]/5b,
{4},2,,1,
{4},8,,7,
{4},6,,5,
{32}3,4,5,6,
{1},,,,
E
