&title=Delulu
&artist=KiiiKiii
&first=0.03
&des=Kuronitz
&lv_5=13
&des_5=Kuronitz
&inote_5=
(122){4},{8},,6,5,4,3,
{2}2xh[2:1],{8}5,4,3,2,
{2}1xh[2:1],{8}7,6,{4}5xh[4:1],
{8}4,3,2,3xh[4:1],,5,6,7,
{4}8x-6[8:1],8x-2[8:1],8xw4[8:1],8bx,
4/5x<8[2:1],4,3,2,
8/1x>4[2:1],8,7,6,
4/5x<8[2:1],4,3,2p1[4:1],
,7xq8[4:1],,Cf,
{16}1x/8<5[2:1],1x,,2,,2,,3,{8}3,4,{16},,,,5x/4>1[2:1],
5x,,6,,6,,7,{8}7,8,,Cfh[8:1],
,,{4}6<2v4[2:1],4,4,
5x,5pp5[4:1]*qq5[4:1],,,8,
7,{8}4/6-3[8:1],5,{4}6/4,
1,2,{8}5/3-6[8:1],4,{4}3/5,
1,8,{8}1/7-4[8:1],6,{4}7/1,
4>8[4:1],8<4[4:1],{2}4>8[4:1],
{4}5xh[4:7],4,,4,
,4,,4,
4h[4:3],5,,5,
4/5,3/6,{8}7/2,1bx/8bx,5bx/4bxV28b[4:1],7bx/2bx,
4,7xV53[4:1],7,2xV46[4:1],2,2,8,8,
{4}8x-2[8:1],8x-3[8:1],8x-4[8:1],8x,
{8}5xV71[4:1],5,5,4,4,3,{4}3/2x-6[8:1],
2b/1x-5[8:1],1b/8x-4[8:1],8b/7x-3[8:1],7b/3,
{8}8xV64[4:1],8,8,1,1,2,{4}3xq6[4:1],
6x<3[4:1],3xq6[4:1],{2}6x<3[4:1],
{4},Ch[1:1],{8},,,,,,,,7,
8,1V75[8:1],2,
{2}1bx/3h[2:1],{8}2,1,8V64[8:1],1,
{2}8bx/2h[2:1],{8}1,8,{4}7h[2:1],
{8}8,1,2,3h[2:1],,2,1V35[8:1],2,
{4}1bx/8V64[8:1],8bx,{8}2,1,8V24[8:1],7,
{2}8bx/6h[2:1],{8}7,8,1V35[8:1],8,
{2}1bx/7h[2:1],{8}8,1,{4}2h[2:1],
{8}1,8,7,6h[2:1],,7,1V35[8:1],3,
{4}1bx/8V64[8:1],8bx/1V35[8:1],1bx/8V64[8:1],8bx,
{8}5h[4:1],,,4h[4:1],,,,,3,
2,1,8,7,6p4[2:1],5,4,
3h[4:1],,,C,,,,,3,
2,1,8,7,6,7,8,
{4}1h[4:1],{8}8-4[8:1],8/1,,,,,{4}8h[4:1],
{8}1-5[8:1],8/1,,,,,{4}2h[4:1],
{8}1-5[8:1],8/1,{16},,D7,A6,{4}D6,
2-6[8:1],1-5[8:1],8-4[8:1],7-3[8:1],
1,2,{8}5/3-6[8:1],4,{4}3/5,
8,7,{8}4/6-3[8:1],5,{4}6/4,
8,1,{8}8/2-5[8:1],3,{4}2/8,
5<1[4:1],1>5[4:1],{2}5<1[4:1],
{4}4xh[4:7],5,,5,
,5,,5,
5h[4:3],4,,4,
5/4,6/3,{8}2/7,8b/1b,4b/5bV71[4:1],2b/7b,
5,2V46[4:1],2,7V53[4:1],7,7,1,1,
{4}1-7[8:1],1-6[8:1],1-5[8:1],1,
{8}4V28[4:1],4,4,5,5,6,{4}6/7bx-3b[8:1],
7b/8bx-4b[8:1],8b/1bx-5b[8:1],1b/2bx-6b[8:1],2b/6,
{8}1V35[4:1],1,1,8,8,7,{4}6p3[4:1],
3>6[4:1],6p3[4:1],{2}3>6[4:1],
{4},Ch[1:1],{8},,,,,,,,2,
1,8V24[8:1],7,
{2}8b/6h[2:1],{8}7,8,1V35[8:1],8,
{2}1b/7h[2:1],{8}8,1,{4}2h[2:1],
{8}1,8,7,6h[2:1],,7,8V64[8:1],7,
{4}8b/1V35[8:1],1b,{8}7,8,1V75[8:1],2,
{2}1b/3h[2:1],{8}2,1,8V64[8:1],1,
{2}8b/2h[2:1],{8}1,8,{4}7h[2:1],
{8}8,1,2,3h[2:1],,2,8V64[8:1],6,
{4}8b/1V35[8:1],1b/8V64[8:1],8b/1V35[8:1],1b,
{1}4>4[8:23],
E
