&title=Tachyon
&artist=cosMo@暴走P
&first=0
&des=有一点没爆起来
&lv_5=14
&inote_5=(235)
{1},
{4},{48},,,,,
1x,,,,,,,
{1},,
{48},,,,,,,,,{32}
6x,5x,
{1}4x>5[4:20],,,,{4},,,Chf[2:1],,,,,
{8}
3,2,1,8,17,17,,34,34,,57,57,,12,12,,
6,5,56,,
3,24,,6,57,,2,13,,7,68,,4,35,2-6[8:1]/6,,
8b,,
7,7,5,5,4,4,2,2,8,8,18,18,27,,
{16}
4,3,2,1,5,6,7,8,2,3,4,5,1,8,7,6,5h[2:1]/1b,,,,,,,,
{4}C,,
{8}
3h[4:1],,4,,5,5,4,6h[8:3],,,,,57,,6,,4-2[8:1],,5,,6-8[8:1],,5,,
5>1[4:1],,8x,,8,,
7,6,5-1[8:1],,2x,2xpp6[4:3],,,,,,,,,
8,,17,,2-5[4:1]/6,,,8,8-4[8:1]*-4[8:1],,,,1b,,
E2/B2,E6/B6,E4/B4,E8/B8,B2/B3,B6/B7,
2x-5[8:1],,6,6,7x-4[8:1],,1,1h[4:1],,8,8,2,4,3,5,4/6h[4:1],,
{16}8,1,2,3,4,5,
{8}
7,7,5,6,
{16}
4,5,4,5,4,5,4,5,
{8}
3<6[8:1],,,,
8-4[8:1],,3,3,5,5,1,7-5[8:1],,
4,3,2,1-5[8:1],1,8,7,,
6,2,2,4,4,3,3,
{16}
7b,6,5,4,3,2,1,8,37,4,5,6,7,8,1,2,
{4}3q5[4:3],,,
7x,8x,1x,
2<7[4:1],,
5p3[4:3],,6x,,
7xqq1[4:3],8,1,2,
3h[4:1],4,6h[4:1],5,
2h[4:1],3,7h[4:1],6,
1-5[1:1],{8}
8,8,2,2,7,7,1b,,,,
{16}
6,4,6,4,5<8[8:1],,,,
{8}
2b-6[8:1]/5b,,12,,
{16}4,3,2,1,4-8[8:1],5,6,7,
{4}
4<7[8:1],4,
{16}
2h[16:3],,,5,,,36,,
{4}4x/7x-3[8:1],78,
{16}
5,6,7,8,5-1[8:1],4,3,2,
{4}
5,2b/8b,
{8}
4,4,6,6,5h[4:1],,
7-4[8:1],7,3-8[8:1],3,6-1[8:1],6,
{16}2,3,4,5,8,7,6,5,3,2,1,8,
{8}
4v1[8:1],,2b-6[8:1]/4b,,2,8b-4[8:1],,8,1bpp4[2:1]*qq6[2:1],,,,,,,,
2,,2h[2:1],,7,,7h[2:1],,8,,1,,2,,3,,4,,5,,6qq3[4:3],,7,,8,,1x,,,,
{16}
2,8,2,8,
{4}1b,
{8}
6,56,,3,24,,6,57,,1,1,8,2-5[8:1],1,2b,,
3x/4x,24,,56,57,,18,27,,
{16}
6,5,6,,4x,,7-4[8:1],,8,,7b,,,,
12,,3,4,3,,6,5,6,,3,4,2,,6,5,
7,4,7,4,7,4,7,4,8,3,8,3,8,3,8,3,
8xb,7x,6x,5x,1xb,8x,7x,6x,2xb,1x,8x,7x,3xb,2x,1x,8x,{4}7xh[4:3]/4xbq5b[2:1],,,,
{16}
1x-5[8:1],,,,6,,6,,4x,3,2,1,7x,6,5,4,
2v5b[8:1],,2,,1<6[8:1],,1,,3qq5[8:3],,4,,5x,,,,
6h[2:1],,,,{24}7,8,1,2,3,4,
5xhb[2:1],,,,,,4,3,2,1,8,7,
{8}6x,E5/B4,B8/B7,B2/E3,{24}D6,D5,D4,D3,D2,D1,{4}D8f/C,
{8}
3<6[8:1],,36,,
8-4[8:1],1-3[8:1],8,1,7,7,6,6,5-2[8:1]*-8[8:1],,5b,,
1-5[8:1],1,7-4[8:1],7,3,3,25,25,
1-5[8:1]/6-1[8:1],,1b/6b,,4w8[8:1],,,,
{16}
2,4,3,4,3,,,,7,5,6,5,
{4}6>2[4:1],2<6[4:1],6x>2b[4:1],2<6b[4:1],6x,
1>4[4:1],{12}4x,5x,6x,7x<4b[4:1],,,{16}4,3,2,1,{8}8b,,
{16}
1,7,1,7,2x,,6x,,3x,,5x,,
4xb,3,2,1,4xb,5,6,7,2,,2,,8,,8,,1,,1,,7,,7,,3,,3,,
4,5,6,7,
{8}48,48,37,37,26,26,15,15,8-3[8:1]/4-7[8:1],,48,,
6,5,4,3,
{16}
8b,7,6,5,8,7,6,5,1,2,3,4,1,2,3,4,7b,6,5,4,3,2,1,8,47,5,6,7,8,1,2,3,
8b,7,6,5,8,7,6,5,1,2,3,4,1,2,3,4,6b,5,4,3,2,1,8,7,26,3,4,5,6,7,8,1,
4b,5,6,7,1,2,3,4,5,6,7,8,1,2,3,4,8b,7,6,5,8,7,6,5,4,3,2,1,8,7,6,5,
8b/4,7,6,5,48,3,2,1,58,7,6,5,14,3,2,1,4-2[8:1]/8-6[8:1],,,,48,,,,1b-5[8:1]/5b-1[8:1],,,,,,,,
{8}
2x,2,4,4,3,3,7-4[8:1],7,1-5[8:1],1,6<1[8:1],6,2>5[8:1],2,8,8,
4x/7x,,{12}3,4,3,25,,,6,5,6,4/7<4[8:1],,,8>3b[4:1],,,3x,4x,5x,6x,7x,8x,
{2}1xh[2:1],B5,3h[2:1],E2,5h[2:1],C,{8}
,3,46,57,
{12}
68,7,8,1,2,3,
{8}
45,45,,56,57,,34,25,,56,47,,
{16}
8,7,6,5,1,2,3,4,
{8}
1,1,48,48,37,37,26,26,
1b/5b,3b/7b,,,Ch[2:1],,,,
{2}
E8,E2,E6,E4,A7/B7,B3/A3,
{4}
B5,C,B1,,
2x>5[2:1]/E6,,E2,,7x<4[2:1]/E4,,E8,,
Ch[4:3]/B1/A1,B2/A2,B3/A3,A4/B4,A5/B5,A6/B6,A7/B7/A8/B8/E8f,,
3qq1[2:1],B7,B5,,7v4[2:1],E1,B3,,2qq7[2:3],E6,E5,E4,3x<6b[2:1],,,,
8p4[2:1],B1,B3,,3v6[2:1],B7,E1,,7xh[1:1],6x,5x,4x,3xh[4:3],B7,C,B3,
{12}
1x,2,3,7,6,5,2,3,4,8,7,6,
{8}
2-8[8:1],,6-4[8:1],,3h[4:1],,
{16}
1,8,7,6,5b/1h[4:1],,,,3,4,5,6,3h[4:1]/7b,,,,
1,8,7,6,1/5b,,1,,26,,6,,3-8[8:1]/7-4[8:1],,,,,,,,
2x,3,4,5,1,8,7,6,4-8[8:1],3,2,1,4b,,,,
7x,6,5,4,8,1,2,3,5-1[8:1],6,7,8,5b,,,,
2,4,3,4,3b,,,,7,5,6,5,6b,,,,
1w5[8:1],,,,1b,,,,8w4[8:1],,,,8b,,,,
2b/7b,,,,
{8}
1-5b[8:1],1,8<5[8:1],8,{16}4,3,2,1,
{8}
8-3[8:1],8,4-7[8:1],4,2-6[8:1],2,8b,,
{16}
15,8,7,6,15,2,3,4,15,8,7,6,15,2,3,4,1-6[8:1]/5-2[8:1],,,,15,,,,3-8[8:1]/7-4[8:1],,,,3b/7b,,,,
2,,2,,4,,3,,6,,6,,5,,7,,1-5[8:1],,,,1/8-6[8:1],,,,2-4[8:1]/8,,,,72,,,,
1,8,1,8,1,8,1,8,2,7,2,7,2,7,2,7,
{12}
,,34,,45,,56,,47,,38,,
{8}
1-6[8:1]/2-5[8:1],,,,7-4[8:1]/8-3[8:1],,,,
{16}
2b,1,8,7,6,5,4,3,2/7,8,1,2,3,4,5,6,
{4}
3b/7b<4[8:1],2-6[8:1]/7,2/8-4[8:1],1h[4:1]/8,
{12}
3,2,4,3,5,4,6,5,7,6-2b[8:1],,,
{8}
6b/8b,8,3,3,
4,4,1,1,
6,6,57,57,48,48,13,13,
{12}
2x,4x,3x,7x,5x,6x,1x,3x,2x,8x,6x,7x,
{8}2,2h[4:1],4,4h[4:1],5,5h[4:1],7,7h[8:1],
{12}
1pp4[4:5],,,5,6,7,8h[4:1],,,,,,8-5[4:1],,,,,,,,,
3x/6x,,,
7pp2[4:5],,,6x,5x,4x,3x,,,2x,,,3x,,,4x,,,5xw1[8:1],,,Cf,,,
{8}
3,3,7,7,4,4,6,6,5,5,5,5,15,48,37,26,
{16}
1b/5b,2,37,6,25,3,48,7,16,2,37,6,25,3,47,6,
5/1b,2,3,4,15,8,7,6,1b/5b,8,7,6,15,48,37,26,
{4}
1h[4:1]/5h[4:7],,2xh[4:1],,3h[4:1],,4h[4:1],,
5h[4:7]/6h[4:1],,7h[4:1],,8h[4:1],,1h[4:1],,
4h[4:1],8h[4:1],3xh[4:1],7xh[4:1],
{8}
2,6,2,5,2,4,2,3,1,8,2,7,3,6,4,5,3x,4x,2x,5x,1x,6x,
8xbs4[4:7]*s4[4:7],7xbz3b[8:13],
