&title=Ⅱ-Ⅴ
&artist=Ring
&first=0
&des=DfC
&lv_5=13+
&inote_5=(150)
{1},
{8}4>5[2:1]/5,45,,,,,,3qq6[2:1]/8,
,,,,,,,4h[8:3]/6h[8:5],
,,,5,5,6,6,7h[8:5]/5h[8:3],
,,,6,6,7,7,6,
5<4[2:1]/4,54,,,,,,6pp3[2:1]/1,
,,,,,,,5h[8:3]/3h[8:5],
,,,4,4,3,3,2h[8:5]/4h[8:3],
,,,3,3,2,2,3,
5,4,6,5h[4:1],,8h[4:1],,1,
,3,7,2,,4,5,,
56,56,56,,78,,1,28,
,24,24,,34,,4h[4:1]/6h[4:1],,
,46,46,,18,,3,24,
,48,48,,45,,5h[4:1]/7h[4:1],,
,43,43,,21,,8,71,
,75,75,,65,,5h[4:1]/3h[4:1],,
,35,35,,81,,6,75,
,15,15,,{16}4,5,3,6,2,7,1,8,
{8}1b>7[4:3],,,,8,,,,
8,,2h[8:5],,4,4h[4:1],,,
3qq8[4:3],,,,6,,,,
6,,5h[8:5],,7,7h[4:1],,,
6pp5[4:3],,,,4,,,,
4,,3h[8:5],,2,2h[4:1],,,
1>8[4:3],,,,2,,,,
2h[4:1],,6,,18,27,36,45,
4b>1[8:1]/6b,7,8-4[8:1],7,58,,34,,
28,28,1-6[8:1],6-2[8:1],17,,5,,
3/6<1[8:1],2,1-5[8:1],2,14,,78,,
45,45,7-3[8:1],3-6[8:1],27,,8,,
1-4[8:1]/6,5,4-8[8:1],5,47,,12,,
56,56,3-6[8:1],6V42[8:1],35,,8h[4:1],,
1,,{16}17,17,1h[8:3]/7h[8:3],,,,,,,,,,
56,56,5h[4:1]/6h[4:1],,,,,,24,24,2h[8:3]/4h[8:3],,,,,,
{2},3h[2:1],
5h[2:1],7h[2:1],
6w2[2:3],,
,,
{8}45,5,5,25,2,27,7,78,
18,8,8,48,4,46,6,67,
{16}1,2,3,4,56,,56,,8,7,6,5,34,,34,,
2,3h[16:1],2,3h[16:1],2,3h[16:1],2,3h[16:1],2,1,8,7,6,5,4,3,
{8}12,2,2,25,5,35,3,38,
17,1,1,16,6,46,4,45,
1h[8:1],2h[8:1],3h[8:1],4h[8:1],5h[8:1],6h[8:1],7h[8:1],8h[8:1],
{16}6,5,4,3,6,5,4,3,6,5,4,3,6,5,4,3,
{8}26,6,6,68,8,18,1,15,
48,4,4,34,3,23,2,12,
78,8,8,58,5,56,6,16,
37,3,3,34,4,47,7,67,
45,4,4,24,2,28,8,68,
57,7,7,17,1,13,3,35,
{16}2bv5[8:1],1b,3b,1b,2b,,,,34,,2h[4:1]/8h[4:1],,,,,,
7bv4[8:1],8b,6b,8b,7b,,,,65,,7h[4:1]/1h[4:1],,,,,,
{8}1-5[8:1]/2,,1/8-4[8:1],7,1-5[8:1]/8,2,1/8-4[8:1],7,
6V85[4:1],,5-1[8:1]/6,4,,2,48,,
1-5[8:1]/7,,1/3-6[8:1],2,1-5[8:1]/3,8,1/3-6[8:1],2,
1>7[4:1],,1/7p3[8:1],8,,6,24,,
7/8-4[8:1],,8/1-5[8:1],2,8-4[8:1]/1,7,8/1-5[8:1],2,
3V14[4:1],,4-8[8:1]/3,5,,7,51,,
2/8-4[8:1],,8/6-3[8:1],7,8-4[8:1]/6,1,8/6-3[8:1],7,
8<2[4:1],,8/2q6[8:1],1,,3,75,,
{16}4,6,4,6,1-6[8:1],,7,,1-4[8:1]/3,,2,,1/5,,8h[4:1],,
,,1,7,8h[8:1],,6,2,8h[8:1],,3,6,8h[4:1],,5,,
5,1,5,1,8-5[8:1],,2,,6/8-3[8:1],,7,,18,,4h[4:1],,
,,5,3,4h[8:1],,2,6,4h[8:1],,7,2,4h[4:1],,3,,
1,5,1,5,2-6[8:1],,4,,2-4[8:1],8,8,,2,5,5h[4:1],,
,,1,1,8h[8:1],,6,6,7h[8:1],,2,2,4h[4:1],,1,,
2,6,2,6,8-4[8:1],,5,,8-2[8:1],7,7,,8,4,4,,
3,4,2,5,4,6,3,7,5,6,4,8,15,15,,,
3,3,4,,75,,3,3,4,,75,,3,3,4,,
1,1,7,,34,,1,1,7,,34,,1,1,7,,
6,6,5,,42,,6,6,5,,42,,6,6,5,,
8,8,2,,56,,8,8,2,,56,,27,18,18,,
