&title=チーズ
&artist=Chinozo
&first=0
&des=チーズ星人
&lv_5=13
&inote_5=(134){1},
{4}3h[4:1],B5/E5,6h[4:1],B4/E5,
{4}2h[4:1],B5/E5,7h[4:1],B4/E5,
{8}1h[4:1],,B5/E5,,8,8x-6v5-3[8:3],,,
{8},2x-4v5-7[8:3],,,,8x,8x,,
{4}1h[4:1],B5/E5,7h[4:1],B4/E5,
{8}2h[4:1],,B5/E5,,6,7/5,1s5[4:1],2/8,
{2}1x,4xv1[8:1]/6xv1[8:1],
{8}3b/7b,,6-1[8:1]/4-2[8:1],5,6x/4x,,3-8[8:1]/5-7[8:1],4,
{4}3x/5x,1^6z2[16:5],5h[4:1],,
{8}3/4^6[32:3],,1,1,3/4-7[8:1],,1,1,
{8}3/4-8[8:1],,1,2-5-1[16:3],3,8x,8x,,
{8}2bh[4:1],1,7h[4:1],8,3h[4:1],4,6h[4:1],5,
{16}1,,1,,2/8,,3/7,,4h[4:1]/6,,,,5,4,5,4,
{8}6b,7/5,3,4/2,8b,1/7,2,1/3,
{8}8,1/7,2/6,3/5,4h[4:1]/6,,C,,
{2}7x>3v5[2:1]/3x,4,
{4}1,2V85[16:5]/8V25[16:5],,,
{2}3xqq8[2:1],7qq4[2:1],
{4}1h[16:1],1h[16:1],1s5[8:1],,
{4}7bx>3v5[2:1]/3bx,4,4,4,
{4}3V15-2[2:1],6,7,8,
{16}1,,1,,8,,8,,1,8,2,7,3s7[16:5],6z2b[4:1],4,5,
{4},,,C,
{16}4b-8[8:1]/3bV57[8:1],,,,4/3,,,,1x,,2,1h[8:1],,2,1,,
{16}4-8[8:1]/3V57[8:1],,,,4/3,,,,1x,,2,1h[8:1],,2,1,,
{16}4-8[8:1]/3V57[8:1],,,,4/3,,,,1x,,2,1h[8:1],,3,2xh[8:1],,
{8}3,1,2/8,3,7-2b[8:1]/4-1b[8:1],5/6,,,
{16}4b-8[8:1]/3bV57[8:1],,,,4/3,,,,1x,,3,8h[8:1],,2,1,,
{16}4-8[8:1]/3V57[8:1],,,,4/3,,,,1x,,3,8h[8:1],,2,1,,
{8}2/8,3,6/4-1b[8:1],5/7-3b[8:1],,,,1,
{16}6,5,6,5,7,,4,,2-7[8:1]/1s5b[8:1],,3/8,,2b,,,,
{4}1xh[8:1],7/E1,3/E5,6/C,
{8}5/3^5-2-6[16:5],2,6,8,8,,1/7,8,
{8}2^5[8:1]/5x,1,6,6,7^4[8:1]/4x,8,3,3,
{8}2h[8:1],1h[8:1],8h[8:1],7h[8:1],1,2,6-4[12:1],7,
{8}C,,2-6b[8:1],6V42b[32:5],8h[4:1],,,,
{8}1/7,2,1-5^6-2b[4:1]/3,8h[8:3],,,,,
{8}4/3,3,6/5,7,1-4[8:1]/8-5[8:1],2,,,
{8}4x,6,3V15-2b[32:9],4,7,8x,8x,,
{8}1b,2,3/5,6,7/4h[8:1],E8,5,6,
{8}8,7,6/4,3,2/5h[8:1],E3,4,3,
{8}2-6[8:1],8p3[8:1],,,1V75[8:1]*V35[8:1],,,,
{8}Ch[8:1],,,,,5h[4:1],4bh[8:1],,
{16}3bV57[8:1]/6bv1[8:1],,,,3/6,,,,2x/8x,,3,1h[8:1],,3,1,,
{16}3V57[8:1]/6v1[8:1],,,,3/6,,,,2x/8x,,3,1h[8:1],,3,1,,
{16}3V57[8:1]/6v1[8:1],,,,3/6,,,,2x/8x,,3,1h[8:1],,4,2xh[8:1],,
{8}3,1,2/8,3,7-2b[8:1]/4-1b[8:1],5/6,,,
{16}3bV57[8:1]/6bv1[8:1],,,,3/6,,,,3x/8x,,2,4h[8:1],,2,1,,
{16}3V57[8:1]/6v1[8:1],,,,3/6,,,,3x/8x,,2,4h[8:1],,2,1,,
{8}3/8,4,7/5-2b[8:1],6/8-4b[8:1],,,,1,
{16}6,5,6,5,7,,4,,2-7[8:1]/1s5b[8:1],,3/8,,2b,,,,
{4}1xh[8:1],7/E1,3/E5,6/C,
{4}3/E5,7/E1,2/C,6h[8:1]/E1,
{4}4/E6,8/E2,3/C,7/E2,
{4}4/E6,8/C,1h[8:1]/E6,2h[8:1]/E2,
{4}3h[8:1]/5,E2/3h[8:1],6h[8:1]/4,E8/6h[8:1],
{4}5/2h[8:1],B4/3h[8:1],4/7h[8:1],B5/6h[8:1],
{8}3/5,4,6/4,5,2/5,3,7/4,6,
{16}1,5,3,7,4-7-1^6b[8:3],8-3-5^2[16:5],2,6,,,,,,,,,
{4}1xh[2:1],,Chf[8:3],3xV57[8:1],
{16}3b/4b-8[8:1],,,,4/8,,,,1x,,2,1,3V57[8:1],5,4,,
{16}3/4-8[8:1],,,,4/8,,,,1x,,2,1,3V57[8:1],5,4,,
{16}3/4-8[8:1],,,,4/8,,,,1x,,2,8,3,5,1xh[8:1],,
{8}4,3,2/8,3,7-2b[8:1]/4-1b[8:1],6/5,7b/4bV68[8:1],,
{16}4b/3b-7[8:1],,,,3/1,,,,2x,,3,1,4V68[8:1],5,2,,
{16}4/3-7[8:1],,,,3/1,,,,2x,,3,1,4,5,2,,
{8}3/1,4,8/5-1b[8:1],6/7-4b[8:1],5b,7b,,1,
{16}6,5,7,4,8,,3/5,,2-7[8:1]/1s5b[8:1],,3/8,,2b,,,,
{16}1bx-3b[8:1]/6bx-8b[8:1],,,,1b/6b,,,,4x,,2,4,,7,5,,
{16}8bx-6b[8:1]/3bx-1b[8:1],,,,8b/3b,,,,5x,,7,5,,2,4,,
{16}1bx-3b[8:1]/8bx-6b[8:1],,,,1b/8b,,,,4x,,3,5/2x,,6,4/7x,,
{16}E5,,1,8,3,6,4,5,2b/7b,,4,5,3V57[8:1],,2,,
{16}3b/6bv1[8:1],,,,8/6,,,,2x,,4,5,3V57[8:1],1,2,,
{16}3b/6bv1[8:1],,,,8/6,,,,2b,,3qq4b[4:1],5pp4b[16:3],4,,,,
{8},,1x-5^2-6[16:5],8,7h[4:1],,,,
{16}4,5,3,6,4,5,3,6,2-5b[8:1]/7-4b[8:1],,1/8,,2b-8[12:1]/7b,,,,
{4}2x/7x-3[8:1],7x/4x-6[12:1],4x/8x-4[8:1],8x/1x,
{8}5/3^5-2-6[16:5],2,6,8,8,,1/7,8,
{16}2^5[8:1],,5,5,2x,,6,,7^4[8:1],,4,4,7x,,3,,
{8}2,7/5,8,2-4v5-7[4:1]/4,1,8x,8x-2[12:1],,
{4}8x/3x-7[8:1],3x/6x-4[12:1],6x/2x-6[8:1],2x/1x,
{8}5/7^5-8-4[16:5],8,4,2,2,,1,3,
{8}6,7/5,1,8/2,3,4/2,7,8/6,
{8}1,2/8,3^8[8:1]/7,4/6,3x,5,7x-2b[8:1]/4x-1b[8:1],6/5,
{32}7b/4b,Cf/B1/B2,,,,,,,,,,,,,,,,,,,,,,,,,,,,,,,
E
