&title=ホトハシル
&artist=ORESAMA
&first=0
&des=Jitjinsu
&wholebpm=140
&lv_5=14
&inote_5=(140)
{4},,,{32}A1,A2,A3,A4,A5,A6,A7,A8,
{4}1hx[2:1]/5hx[2:1],,{8},A7f/B7/E7/E8,{16},A3f/B3/E3/E4,,,8hxb[2:1]/4hx[2:1],,,,,,,,
{8},A2f/B2/E3/E2,{16},A6f/B6/E7/E6,,,3hxb[2:1]/7hx[2:1],,,,,,,,,,
{8}A1f/E1/E2/B1,{16},A5f/E5/E6/B5,,,8hx[2:1]/4hxb[2:1],,,,,,,,,,
2,4,,6,4,,
{16}56,,2,3,2,4,3,4,3h[8:1],,1,3h[8:1],,8h[8:1],2,,56,,7,6,7,5,6,5,6h[8:1],,8,6h[8:1],,1h[8:1],7,,
45,,4,6,4,5,3,5,1xh[8:1],,7,2h[8:1],,5h[8:1],8,,
{32}1xb,2,3,4,5,6,7,8,1,2,3,4,5,6,7,8,1,2,3,4,5,6,7,8,1,2,3,4,5,6,7,8,1hb[2:1]/Ch[2:1],,,,,,,,,,,,,,,,,,,,{24}1,1,1,1,,,,,,
{16}2h[8:1]/4h[8:1],,,3h[8:1],,,5h[8:1]/2,,,3^8[8:1],4,,4,3,,,2x/7h[4:1],,,6h[4:1],,,5h[4:1],,,,4,5,,3,4,,2h[4:1]/6h[8:1],,,1h[8:3],,,3,,3h[4:1],,,1h[4:1],,,3,,
8h[8:1]/3h[8:1],,,7h[8:1],,,7h[8:1]/1,,,,1,8,,2,1,,
3h[8:1]/4h[8:1],,,3h[8:1]/5h[8:1],,,3h[8:1]/6,,,7-4[8:1],8,,8,7,,,5x/3h[4:1],,,4h[4:1],,,2h[4:1],,,,4qq2[8:1],3,,5,4,,6x,6,3,,4x,4,7,,8x,8,6,,2x,2,4,,
{8}1^4[8:1],1h[4:1],,,5^8[8:1],5h[4:1],,,14,2x,74,6x,25,3x,58,7x,2q8[8:1],2h[4:1],,,7p1[8:1],7h[4:1],,,24,3x,61,7x,38,2x,85,7x,
{8}2b/4h[4:1],B1,2h[4:1],B5,6h[4:1],B4,1h[4:1],C,8h[4:1],B5/B4,6h[4:1],B7/E8,1h[4:1],E5/B4,3h[4:1],C,6,57,8-5v7[4:1]*-3v1[4:1]/4,,,Cf,,
{8}2bx/6bx,2bx-6[8:1]/6bx,,2b/7b-3[8:1],,7b/4b-1[8:1],,5b-8[8:1]/4b,,
{4}4b>5[1:1]/5b,,,,4b>5[1:1]*>5[1:1],,,{8},4,4b>5b[1:1],,,,,,,{16}4x,4x,{4}4b>5[4:3],,,,1s5b[8:13],,,,4z8b[8:5],,,,Cfh[4:3],B2/B7/B1/B8/E2/E8/E3/E7/E1f,,,
{12}3xh/7xh,3h/7h,3h/7h,2xh/6xh,2h/6h,2h/6h,7b,8b,1b,2b/7b,,,
{16}7>3[8:1]/2,16,85,,6x,,6,,7>3[8:1]/2,16,85,,5xV37[4:1],,6,,7V15[4:1]/5b,,8x,,8,,6,,,,
6,,7-3[8:1]/8,,1,,2-4[8:1]/7,,1,,2/5-1[8:1],,6,,5/8-6[8:1],,7,,8/2-4[8:1],,1-5[8:1],,2-6[8:1],,1>7[4:1],,2b,,1b,,,,,,8,,1,,
{16}2<6[8:1]/7,83,14,,3x,,3,,2<6[8:1]/7,83,14,,4xV68[4:1],,3,,8V24[4:1]/4b,,3x,,3,,1x,,,,5,,5qq5[4:1]*pp5[4:1],,,,5-1b[8:1],,,,,,
8,,8h[2:1]/3h[2:1],,,,,,,,,,5b/6b,,1bw5[8:1]/2,,5bw1b[8:1]/6,,1bx,,Cf,,,,,,
{16}6v3[8:1]/3,47,58,,7x,,7,,6v1[8:1]/3,47,58,,8xV61[4:1],,7,,1x-5[8:1]/8,,5-2[8:1],,2<5[16:3],,,,,,
3,,3^8[8:1],,4,,3/5^8[8:1],,6,,3-8[8:1],,4,,3/5-8[8:1],,6,,54,,3-1[8:1],,4-8[8:1],,3b<1[4:1],,4b,,3b,,,,
5,,6h[24:5],,{24}3x,2,1,8h[24:4]/7h[24:11],,,,,,1,,,2x,3,4,{8}6h[4:1]/5h[4:1],,,
5^2[8:1],,6^1[8:1],7,6/3x,,78,16,2h[4:1]/5h[8:1],,4,5>7[8:3]/8>6[8:3],67,58,,,,,
3-5[8:1],7-2[8:1],3-8[8:1],7-5[8:1],3-6[8:1],7,3,
{16}1b,,3,4,3,,6,5,6,,7^4[8:1],8,,8,7pp1^8[8:1],,,,67,,,,5,5,5,,3v6[8:1],4,3,2,3,,8b,,
7,5,7,,2,4,2,,2^5[8:1],1,,1,2qq8^1[8:1],,,,32,,,,4,4,4,,6v3[8:1],5,6,7,6,,1b,,
8,6,8,,1,3,1,,5-1[8:1],4,,4,5-2[8:1]*-8[8:1],,,,5,,,,1,1,1,,2v5[8:1],1,3,8,2,,
{32}7b,6x,5x,4x,3x,2x,1x,8x,7x,6x,5x,4x,3x,2x,1x,8x,7x,6x,5x,4x,3x,2x,1x,8x,7x,6x,5x,4x,3x,2x,1x,8x,7x/3x,6x,5x/1x,4x,3x/7x,
2x,1x,8x,7x/3x,6x,5x/1x,4x,3x/7x,2x,1x,8x,7x/3x,6x,5x/1x,4x,3x/7x,2x,1x,8x,
{4}7x>7[1:4],,,,,B2,,,,B4,,,,B6,,,,4x>4[4:11],,,,B2/E2,,,,B7/E7,,,,
{8},1b/B6f,7b/B4f,2b/B5f,5h[8:3]/Cfh[4:1],,,,
{16}1<5[8:1]/B5,2/B7,3/E1,,2x,,2,,1<5[8:1]/B5,2/B7,3/E1,,2xV41[4:1],,3,,1-5[8:1]/2,,5-8[8:1],,8>4[16:3],,,,,,
{32}7bx,E7,B6,B5,E5,,,8bx,E1,B1,B2,,4bx,E5,B5,B6,
{8}2,1/8-4[8:1],8,8/5-1[8:1],5,5,7-5[8:1],8-4[8:1],7b-3[8:1],8b,7b,,2,8,5,
{16}8>4[8:1]/B4,7/B2,6/E1,,7x,,7,,8>4[8:1]/B4,7/B2,6/E1,,7x-1-6-2-5-3b[2:1],,6,,,,,,,,,,,,
{8}1>8[4:1],2,3h[4:1],,,4^1pp4[2:1]/8^5pp8b[2:1],15,,,,,,3h/7h,2h/6h,B1f/B5,2h/6h,3h/7h,B8f/B4,1b/5b,
{8}3hxb[2:1]/7hx[2:1],,,,,{16}A2f/B2/E2/E3,6,,A8f/E8/E1/B8,4,,
{8}2hxb[2:1]/6hx[2:1],,,,,{16}A7f/B7/E8/E7,3,,A1f/E2/E1/B1,5,,
{8}8hxb[2:1]/4hx[2:1],,,,,{16}A3f/B3/E3/E4,5,,A2f/B2/E2/E3,4,,
{8}1hxb[2:1]/5hx[2:1],,,,,{16}3,4,,5,4,,
{16}2,4,3,5,4,6,5,7,5,6,4,B7/B6,,3,E1/B1,2,7,5,6,4,5,3,4,2,4,3,5,B2/B3,,6,E1/B8,7,3,1,2,8,1,7,8,6,8,7,1,B6/B7,,B4/E5,2,6,
{32}8x,1,2,7x,6,5,1x,2,3,6x,5,4,1,2,3,8,7,6,2,3,4,7,6,5,1w5[8:1],2,3,4,5x,6,7,8,1bx,,,,,,,E
