&title=绿坝★绿坝 河蟹你全家☆
&artist=SAM; 荼荼丸; GreenDAM
&first=0.02
&des=moying
&lv_5=12+
&inote_1=
&inote_5=(160){4},,,
{8},3b/7,,5/1b,3b/7,6b/2,4b/8w4[8:1],,8b,,
{8}65,7,43,{16}2-5[8:1],1,,1,2,,{8}8,7,
{16}2,4,3,5,4,6,5,7,
8,6,1,7,2,8,3,1,
{8}3,54,56,{16}7-4[8:1],8,,8,7,,{8}1,2,
5,5h[8:1],{24}7,8,1,2,3,4,{8}5b-2[8:1]/1b-6[8:1],,1b/5b,,
{8}34,2,56,{16}7-4[8:1],8,,8,7,,{8}1,2,
{16}7,5,6,4,5,3,4,2,
1,3,8,2,7,1,6,8,
{8}6,45,43,{16}2-5[8:1],1,,1,2,,{8}8,7,
4,4h[8:1],{24}2,1,8,7,6,5,{8}4b-7[8:1]/8b-3[8:1],,8b/4b,,
{8}5h[4:1],3,4,5/7,6,5h[4:1]/4,3,2,
1h[8:1]/6,7,3/8,2,1/5h[8:3],2,1,2,
{8}4h[8:1]/7,6,3/5h[8:1],2,1h[8:3]/4,5,6,7,
18,2,4h[4:1]/3,2,1h[8:3],5,6,5,
{8}4/6h[8:1],5,4h[4:1]/7,6,5,3,25,6,
3h[4:1]/7,6,5,4/5h[4:1],3,2,1,1,
{4}8<4[4:1],4>8[4:1],8,{8}4,4-7[8:1],,1,{4}1^4[8:1]*^6[8:1],
1bw5[8:1],1b,
{8}4h[4:1]/7,6,5,4/2,3,4h[4:1]/5,6,7,
8h[8:1]/3,2,6/1,7,8/4h[8:3],6,8,6,
{8}5h[8:1]/2,3,6/4h[8:1],7,8h[8:3]/5,4,3,2,
81,7,5h[4:1]/6,7,8h[8:3],4,2,4,
{8}5/3h[8:1],4,5h[4:1]/2,3,4,6,74,3,
6h[4:1]/2,3,4,5/4h[4:1],6,7,8,8,
{4}1V35[4:1],5V71[4:1],1,{8}5,5^2[8:1],,8,{4}8w4[8:1],
8b,
{8}6,7,{4}8V64[4:1],4V28[4:1],8,
{8}3,2,{4}1>5[4:1],5<1[4:1],1,
{8}5,5h[4:1],,1,3/7b,,84,84,2b/6b,,34,2,65,7,2,2h[8:1],3,3h[8:1],
1^6[4:1],,6p2[4:1],,2v5[4:1],,8,8<3[8:3],,,3>7[4:1],,7,,
4,4,4bw8[8:1],,,,5b-1[8:1],,
,3b,,3/7b,1b/5,4b/8,2b-5[8:1]/6-1[8:1],,2/6,,
{8}8-4[8:1]/3,3,38,3,2-5[8:1]/6,6,62,6,
{8}46,8,35,1,{16}6,4,5,3,4,2,8,,
{8}1-5[8:1]/6,6,61,6,7-4[8:1]/3,3,37,3,
{8}42,3,75,6,2h[8:5]/4,4,3,3,
{8},8,7,65,4,3/1-5[8:1],,1/4-8[8:1],3,2,1-5[8:1],,5-2[8:1]/1-6[8:1],,51,,
{8}7q5[4:1],,5q3[4:1],,3,,1,1h[2:1],,5h[4:1],,{32},62,73,84,{8}5b/1w5[8:1],,1b,,
{8}1-5[8:1]/6,6,61,6,7-4[8:1]/3,3,37,3,
{8}53,1,64,8,{16}3,5,4,6,1,8,1,,
{8}8-4[8:1]/3,3,38,3,2-5[8:1]/6,6,62,6,
{8}57,6,24,3,7h[8:5]/5,5,6,6,
{8},1,2,34,5,6/8-4[8:1],,8/5-1[8:1],6,7,8-4[8:1],,4^7[8:1]/8^3[8:1],,48,,
{8}2p4[4:1],,4p6[4:1],,6,,8,4b,,6/2b,8b/4,5b/1,7b-4[8:1]/3-8[8:1],,7/3,,
{8}65,54,43,{16}2-5[8:1],1,,1,2,,{8}8,7,
{16}3,4,1,8,5,6,1,8,
3,5,1,7,3,5,1,7,
{8}3,54,56,{16}7-4[8:1],8,,8,7,,{8}1,2,
5,5h[8:1],{24}7,8,1,2,3,4,{8}5b-2[8:1]/1b-6[8:1],,1b/5b,,
{8}34,45,56,{16}7-4[8:1],8,,8,7,,{8}1,2,
{16}6,5,8,1,4,3,8,1,
6,4,8,2,6,4,8,2,
{8}6,45,43,{16}2-5[8:1],1,,1,2,,{8}8,7,
4,4h[8:1],{24}2,1,8,7,6,5,{8}4b-7[8:1]/8b-3[8:1],,8b/4b,,
{8}24,45,57,{16}7-4[8:1],8,,8,7,,{8}1,2,
{16}7,7,4,4,5,5,2,2,
8,8,6,6,4,4,2,2,
{8}7,45,24,{16}2-5[8:1],1,,1,2,,{8}8,8h[4:1],
6,6h[8:1],{24}2,15,48,37,26,15,{8}4b-7[8:1]/8b-3[8:1],,8b/4b,,
{8}67,54,32,{16}2-5[8:1],1,,1,2,,{8}8,7,
{16}2,2,5,5,4,4,7,7,
1,1,3,3,5,5,7,7,
{8}2,54,67,{16}7-4[8:1],8,,8,7,,{8}1,1h[4:1],
3,3h[8:1],{24}7,84,51,62,73,84,{8}5b-2[8:1]/1b-6[8:1],,{1}1bq3[8:5]/5bq7[8:5],
{8},1b/5,,3/7b,1b/5,4b/8,2b/6,,{48}1b<1[1:2]*>1[1:2],82,73,64,5,
