&title=#1f1e33
&artist=かめりあ(EDP)
&first=0.01
&des=fpd
&lv_5=14+
&inote_5=(181)
{16}
,,,,,,,,
,,,,1-4[8:1]*-6[8:1],,,,
{16}
1V35V71V35[1:3],,,,,,,,
,,,,,,,,
{16}
,,,,,,,,
,,,,,,,,
{16}
5V71b[1:1],,,,,,,,
,,,,,,,,
{16}
,,,,,,,,
3/7,,4/6,,1,8,,,
{32}
1b-7-2-6-3-5b[8:5],2x/8x,3x/7x,4hx[32:29]/6x,,,,,
,,,,,,,,
,,,,,,,,
,,,,,,,,
{16}
6xh[8:1],,,5h[8:1]/4h[8:1],,,1h[8:1]/3h[8:1],,
,2h[8:1]/8h[8:1],,,7/1,,,,
{32}
8b-2-7-3-6-4[8:5],7x`1x,6x`2x,5xh[32:29]`3x,,,,,
,,,,,,,,
,,,,,,,,
,,,,,,,,
{16}
3xh[8:1],,,5h[8:1]/4h[8:1],,,8h[8:1]/6h[8:1],,
,7h[8:1]/1h[8:1],,,2/8,,1,,
{32}
1b-3-8-4-7-5b[8:5],2x/8x,3x/7x,4x/6xh[32:29],,,,,
,,,,,,,,
,,,,,,,,
,,,,,,,,
{16}
4xh[8:1],,,5h[8:1]/3h[8:1],,,6h[8:1]/4h[8:1],,
,7h[8:1]/1h[8:1],,,2/8,,8,,
{32}
8b-6-1-5-2-4[8:5],7x`1x,6x`2x,5x`3xh[32:29],,,,,
,,,,,,,,
,,,,,,,,
,,,,,,,,
{16}
6x,,6,4,,4,7,,
7,3,,3,8,,2,,
{16}
8bx-3[16:1],,,5bx-2[16:1],,,1bx-6[16:1],,
,3bx,,,5bxV74[8:3],,,,
{16}
5x/3x,,,,3,,3,,
1-5[8:1],,,,1V73[8:3],,,,
{16}
1x/6x,,,,6,,6,,
4<6[8:1],,,,4-7-1[8:3],,,,
{16}
4x/2x,,,,2,,2,,
4>1[8:1],,,,4pp8[8:4],,,,
{16}
4x/3x,,,,3,,3,,
1-4[8:1]*-5[8:1],,,,1,,,,
{16}
3xh[16:3]/4x,,,4,2,,6,,
6h[16:3]/4,,,5,7,,2,,
{16}
2h[16:3]/5,,,4,1,,7,,
7h[16:3]/4,,,5,8,,3,,
{16}
8,4,8,4,7,4,6,4,
5,4,5,3,5,2,5,1,
{24}
6,7x,8x,2,3x,4x,
{24}
6-1[8:2],7x,8x,2,3x,4x,
{24}
5-2[8:1],,,,,,
5,,,,,,
{16}
8b>3[8:1]/4b,,,,7,,7,5x,
,5x,,5x,8qq6[8:1],,,,
{16}
8q4[8:1]/1,,1,,7,,7,5x,
,5x,,5x,8,4,8,4,
{16}
1-4[8:1],,,,8,,8,5x,
,5x,,5x,1v4[8:1]*q5[8:1],,,,
{16}
1,,,,27,,
{24}
1x,8x,1x,
{16}
8x,,E8,E7,D2,D3,D4,D5,
{16}
1bx<6[8:1]/5bx,,,,2,,2,4,
,4,,4,1pp3[8:1],,,,
{16}
1p5[8:1]/8,,8,,2,,2,4,
,4,,4,1,5,1,5,
{16}
8b-5[8:1],,,,1,,1,4,
,4,,4,8,,8,,
{16}
E5,B5,B6,E7,E3,B3,B4,E5,
B8,E1,B2,A2,A6,B6,E5,B4,
{16}
8x>3b[8:1],,,,7b,,7,5,
,5,,4,1v3[8:1],,,,
{16}
1p5[8:1]/8,,8,,2,,2,4,
,4,,5,1,8,7,6,
{16}
5/8>3[8:1],,,,7,,7,5,
,5,,4,1pp3[8:1]*q5[8:1],,,,
{16}
1,,,,2/7,,{24}
1b,8b,1b,
{16}
8b,,1,8,2,4,3,5,
{16}
E2f/B2,,,,4/7,,6-2[8:2],5,
,5,7h[8:2],,,,,,
{16}
E8f/B7,,,,2/5,,3<6[8:2],4,
,4,2h[8:2],,,,,,
{16}
D1f/E1,,,4,5,,4x/5x,,
,,E4/B3/E6/B6,,,E4/B3/E6/B6,,,
{16}
1b/8b,,1b/8b,,,,B7,B6,
E2,E3,E4,E5,D1,D8,D7,D6,
{16}
5xV71[16:3]/1,,,,5/1,,2V48[16:3],,
,,2/4,,7-4[8:1],,,,
{16}
73,,3,2,5,6,7,8,
2,3,4,5,8,7,6,5,
{16}
4V28[16:3]/8,,,,4/8,,6V84[16:3],,
,,6/1,,3-8[8:1],,,,
{16}
36,,6,5,1,2,3,4,
6,7,8,1,
{32}
E5,E6,E7,E8,E1,E2,E3,,
{16}
4xV28[16:3],,,,4/6,,7V51[16:3],,
,,7/5,,2,,,,
{16}
2,3,8,7,3,4,7,6,
4,3,2,1,5,6,73,84,
{16}
1V75[16:3]/5,,1x,,2,,3-7[8:1],,
3,,5,,5,,6,,
{16}
8bh[8:1],,7,1bh[8:1],,8,2b,,
1b,1,1,1,1,1,1,1,
{32}
2bz6[8:3],3,4h[32:10],,
{16}
,,2x,,,,
1bx,,,,2,6,2,6,
{16}
4,6,5,6,7,6,8,6,
1<3b[8:2],,2,,1/8h[24:5],,,,
{32}
7bs3[8:3],6,5h[32:10],,
{16}
,,7x,,,,
8bx,,,,7,3,7,3,
{16}
5,3,4,3,2,3,1,3,
8w4b[8:1],,,,,,,,
{16}
2b/6,,,,5,4,5,4,
3/7b,,,,3,4,3,4,
{16}
1b/5,,,,6,5,6,5,
7,6,5,4,3/7,,,,
{16}
8h[8:1]/4h[8:1],,,7h[8:1]/5h[8:1],,,3h[8:1]/4h[8:1],,
,2h[8:1]/1h[8:1],,,3/8,,2,1,
{16}
4h[8:1],,,7h[8:1]/5h[8:1],,,8h[8:1]/6h[8:1],,
,2h[8:1]/1h[8:1],,,3/8,,2,1,
||
改成
16:3
hold
{16}
3h[16:3],,,4,,,5/E4,,
,6/B4,,,7/B5,,3,4,
{16}
3h[16:3],,,4,,,5/E4,,
,6/B4,,,7/B5,,3,4,
{16}
1h[8:1],,,2h[8:1]/4h[8:1],,,6h[8:1]/5h[8:1],,
,7h[8:1]/8h[8:1],,,6/1,,7,8,
{16}
5h[8:1],,,2h[8:1]/4h[8:1],,,1h[8:1]/3h[8:1],,
,7h[8:1]/8h[8:1],,,6/1,,7,8,
{16}
6h[16:3],,,5,,,4/E6,,
,3/B5,,,2/B4,,6,5,
||
启动拍看能不能搞上
{16}
8bx-3[16:1],,,5bx-2[16:1],,,1bx-6[16:1],,
,4bx-7[16:1],,5x<4[8:26],,,,,
{16}
,,,,,,,,
,,,,,,,,
{16}
,,,,,,,,
,,,,,,,,
{16}
5h[8:4],,,,,,,,
,,,,5<4[8:18],,,,
{16}
5,,,,,,,,
,,,,,,,,
{16}
5h[8:4],,,,,,,,
,,,,5<4[8:18],,,,
{16}
5,,,,,,,,
,,,,,,,,
{16}
5h[8:4],,,,,,,,
,,,,5<7[8:2],,,,
{16}
5,,,,,,,,
A4/D4/E4/B4/5b,,,A3/B3/E3/D3/6b,,,A2/B2/E2/D2/7b,,
{16}
8h[8:1],,,7h[8:1]/1h[8:1],,,6h[8:1]/2h[8:1],,
,5h[8:1]/3h[8:1],,,4p3>5[8:6],,4,,
{16}
2h[8:6],,,,,,,,
,,,,,,,,
{16}
1h[8:1],,,2h[8:1]/8h[8:1],,,3h[8:1]/7h[8:1],,
,4h[8:1]/6h[8:1],,,5qq5<4[8:6],,5,,
{16}
7h[8:3],,,,,,
{24}
,,5,
{16}
5bx,,,,,,,,
{16}
6h[16:3]/4,,,5,7,,3,,
3h[16:3]/5,,,4,2,,7,,
{16}
7h[16:3]/4,,,5,8,,2,,
2h[16:3]/5,,,4,1,,6,,
{16}
2,6,2,7,3,7,4,8,
3,7,3,6,2,6,1,5,
{24}
1,2,3,5,6,7,
{24}
2,3,4,6,7,8,
{24}
3,4,5,7,8,1,
{24}
4,5,6,7,8,1,
{16}
2h[8:6]/6bh[8:2],,,,,,,,
Chf[8:4],,,,,,,,
{16}
2b,,,8b/B4f,,,6b/B2f,,
,4b/B8f,,,2x,,,,
{32}
2-6[8:1]/7,36,45,,
{16}
,,2-4[8:1]/7,,,8,
2-6[8:1],8,,1,2-4[8:1],,,,
{16}
2-6[8:1]/6,,7,,2-4[8:1]/7,,,8,
2-6[8:1],8,,1,2-4[8:1],,1,,
{32}
2/1-5[8:1],8,7,,
{16}
,,1-3[8:1]/6,,,7,
1-5[8:1],7,,8,1>4[8:1]*<6[8:1],,,,
{16}
1,,,,3/7,,{24}
2b,8b,2b,
{16}8b,,3,7,2,8,1,,
{32}
8-4[8:1]/2,37,46,,
{16}
,,8-6[8:1]/3,,,2,
8-4[8:1],2,,1,8-6[8:1],,,,
{16}
8-4[8:1]/3,,3,,8-6[8:1]/3,,,2,
8-4[8:1],2,,1,8,,1,,
{32}
15,26,37,,
{16}
,,5,,,3/7,
,,3,7,2,6,1,5,
{16}
3,4,3,4,2,1,2,1,
5,6,5,6,8,7,8,7,
{16}
1>4[16:1],,,,5h[16:7]/1b,,,6x,
,3x,,8x,,,1/5,,
{16}
7<5[8:1],,,,7,4xh[16:6],,3x,
,5x,,1x,,,8/4,,
{16}
8b>3[8:1],,,,7,,7,5x,
,5x,,5x,1-5[8:1],,,,
{16}
1x,,,6x/4x,,,{24}
6b/4b,7b/3b,8b/2b,
{16}
1bp5[8:1]*q5[8:1],,,,1bx,,,,
{16}
E8f/B7,,,,2/5,,3-7b[8:2],4,
,4,2h[8:2],,,,,,
{16}
E2f/B2,,,,4/7,,6>3b[8:2],5,
,5,7h[8:2],,,,,,
{16}
65,,54,,43,,3,4,
2,,5,4,6,4,7,4,
{24}
7b,6,5,
2b,3,4,
8bz4b[4:1],7,6,
1b,2,3,
{24}
,,,,,,,,,,,,
||
这里要重写
{16}
4/3,,2,1h[8:1],,4,7-3[8:1],,
1>4[8:1],7,,,1,,,,
{16}
5b,4,6,4,6,5,7,5,
8,7,6,5,4/3,2,1,,
{16}
1/6,,7,5h[8:1],,6,3>8[8:1],,
8V24[16:3],3,,,5,,6,,
{16}
7b,4,5,4,6,3,4,3,
8,7,6,5,4/3,2,1,,
{16}
7/1,,6,5h[8:1],,8,3<6[8:1],,
6V41[16:3],3,,,8,,7,,
{16}
7b,8,6,4,5,3,4,2,
8,7,6,5,4/3,2,1,,
{16}
8/1,,2,5h[8:1],,4,7>2[8:1],,
2<5[16:3],7,,,4,,3,,
{16}
2b,4,1,3,2,4,3,5,
{16}
1,2,3,4,
5/2,3,4,5,
{16}
2/6,,3x,5h[8:1],,4,7qq5[16:3],,
8>4b[16:3],7,,,8b,,,,
{16}
6,7,8x,1,5,6,7,8,
1p5[8:1]/5p1[8:1],2/6,3x/7x,4/8,,,,,
{16}
8/3,,7x,1h[8:1],,4,3qq4[4:1],,
5<1b[16:3],3,,,5b,,,,
{16}
5,6,7x,8,4,5,6,7,
8b/E3/A3/D3,,,1b/E7/A6/D7,,,4b/5b,,
{16}
8/3,,2,4h[8:1],,3,6<1[8:1],,
1V75[8:1],6,,,{24}
5,4,3,2b,,,
{16}
2,4,3,7,5,6,1,4,
3,8,5,6,
{24}
2x,3x,4x,7x,6x,5x,
{48}
3,,4,,3,,4,,,2b,,,,,,,,,
{48}
6,,5,,6,,5,,,7b,,,,,,,,,
{48}
3,,4,,3,,4,,,1b,,,,,,,,,
{48}
6,,5,,6,,5,,,8b,,,,,,,,,
{24}
2,,2,,2,,7,,7,,7,,
{24}
1,8,1,8,1,8,1,8,1,8,1,8,
1s5b[4:1],8,1,8,1,8,1,,,,,,
{16}
6h[8:1],,,7h[8:1]/5h[8:1],,,3/4h[8:1],,
2,2h[8:1]/1h[8:1],,,3/8,,2,1,
{16}
4h[8:1],,,7h[8:1]/5h[8:1],,,6/1h[8:1],,
7,7h[8:1]/8h[8:1],,,6/1,,7,8,
{16}
6h[16:3],,,5h[16:3],,,4h[16:3],,
3,3h[16:3],,,4,,6,5,
{16}
6h[16:3],,,5h[16:3],,,4h[16:3],,
3,3h[16:3],,,4,,6,5,
{16}
8h[8:1],,,7h[8:1]/5h[8:1],,,3/4h[8:1],,
2,2h[8:1]/1h[8:1],,,3/8,,2,1,
{16}
4h[8:1],,,7h[8:1]/5h[8:1],,,6/1h[8:1],,
7,7h[8:1]/8h[8:1],,,6/1,,7,8,
{16}
5h[8:1],,,6h[8:1]/E4,,,7h[8:1]/B3,,
,8h[8:1]/B2,,,1x,,1x,,
{32}
4b/6b,5,,,,,
3b/7b,64,5,,,,
2b/8b,37,46,5,,,
1bxw5b[4:1],2x/8x,3x/7x,4x/6x,5x,,
,,,,,,,,
{16}
,,,,,,,,
,,,,,,,,
{16}
,,,,,,,,
,,,,,,,,
{16}
,,,,,,,,
,,,,,,,,
{16}
,,,,,,,,
,,,,,,,,
E
