&title=Sheriruth
&artist=Team Grimoire
&first=0.04
&des=芒果怪兽
&des_5=芒果怪兽
&lv_5=14
&inote_5=(185){4},{1},,,{4},,,{8}3x/5x,
3,3,4/6,6,6,4/5,4,
4,3/5,5,5,2/4,3,5/7,6,
2/4,2,2,3/5,3,3,4/6,6,
6,5/7,7,7,4/6,4,3/5,5,
2/4,3,2,3/5,6,5,6/4,3,
4,5/7,6,7,6/4,3,2/4,5,
1/4,2,3,4/6,5,6,7/4,8,
{4}7h[8:1]/1h[8:1],{16}2,5,2,5,3,3,4,4,5,5,6,6,
{4}Cf,{8}3,5h[8:1],3,6h[8:1],3,6h[8:1],
{4}3,{8}3,5h[8:1],3,6h[8:1],3,6h[8:1],
{4}2x,{8}3,5h[8:1],3,6h[8:1],3,6h[8:1],
{4}3,{8}3,5h[8:1],3,6,4/5,4/5,
{4}3x/6x,{8}6,4h[8:1],6,3h[8:1],6,3h[8:1],
{4}6,{8}6,4h[8:1],6,3h[8:1],6,3h[8:1],
{4}7x,{8}6,4h[8:1],6,3h[8:1],6,3h[8:1],
{4}6,{8}6,4h[8:1],6,{24}B3,B4,E5,{8}6-8[8:1],{24}E3,B3,B4,
{4}6bx,{8}4,E8,4,B7,4,B6,
{4}3,{8}3,E8,3,B7,3,B6,
{4}5x,{8}5,E2,5,B2,5,B3,
{4}6,{8}6,E2,6,B2,6,B3,
{4}5<4[4:7],4,4,4,
5,5,5,5,
{8}6,6,5,5,4,4,3,3,
{16}1,8,1,8,2,7,2,7,3,6,3,6,4,5,4,5,
{4}6x/3xh[8:1],{8}3h[8:1],6p1[4:1],{4}3h[8:1],3h[8:1],
{8}3h[8:1],1,8/3h[8:1],7-5[8:1],3h[8:1],7,3h[8:1],4,
{4}3/5h[8:1],{8}5h[8:1],E2/B1,{4}5h[8:1],5h[8:1]/B3/E4,
5h[8:1],5h[8:1],2-5[8:1]/6-1[8:1],2/6,
3h[8:1]/8V26[8:3],3h[8:1],3h[8:1],{8}3h[8:1],5,
{4}6h[8:1]/2V84[8:3],6h[8:1],6h[8:1],{8}6h[8:1],5,
{4}4h[8:1]/7v5[4:1],4h[8:1],{8}4h[8:1],7,4h[8:1],6,
{4}5h[8:1]/2-8[8:1],5h[8:1],{8}2h[8:1],4h[8:1],5h[8:1],7h[8:1],
{4}1x-5[8:1],{8}1,7p4[8:3],{4}3,3,
{8}3,2,3/5,4-1[8:1],5,4,6,2,
{4}6/2h[4:1],{8}5,1h[4:1],{4}5,5/8>3[8:1],
8/6,7V15[8:3],4,4,
{8}3/6,3,3,3/1,3,3,3/8,3/8,
7/4,{16}7,5,{8}7,7/4,7/4,{16}7,8,{8}7,7/1,
2/5,2,4,4,5,5,7,7,
{16}2,1,3,8,4,7,5,6,8,7,1,6,2,5,3,4,
{8}2bx/5bx,2h[8:1],{16}4,3,5,4,6,5,7,8,5,4,1,2,
{8}8h[8:1],{16}1,7h[8:1],,8,{8}6h[8:1],4h[8:1],{16}5,3h[8:1],,4,{8}2h[8:1],
{16}5h[16:3],,,7h[16:3],,,{8}1h[16:3],,1/2,3/4,5/6,
4/7h[8:1],{16}6,7,4,5,2,3,1,8,5,6,1,8,3,4,
{4}2h[8:3],{8}5>2[8:1],6h[8:3],{4}5,1h[4:1],
7h[8:3],{8}4<7[8:1],3h[8:3],{4}4,8h[4:1],
{8}5h[8:1],{16}7,4h[8:1],,6,{8}3h[8:1],{16}5,5h[8:1],,1,{8}1h[8:1],7h[8:1],
{16}2,1,,7,{8}8,{16}3,4,,6,{8}5,3/4,5/6,
4b/7b,7h[8:1],{16}5,6,4,5,3,4,2,1,4,5,8,7,
{8}1h[8:1],{16}8,2h[8:1],,1,{8}3h[8:1],5h[8:1],{16}4,6h[8:1],,5,{8}7,
{4}7b/8b,4b/5b,{8}1b/2b,1b/2b,,4b/5b,
{2}4bq1[8:1]/5bp8[8:1],{16}6,5,7,4,8,3,1,2,
{8}8x/3x<6-2b[2:1],8,8,8,8,8,8,8,
1x/6x>3-7[2:1],1,1,1,1,1,1,1,
7x/8x,7/8,7/8,{16}6,5,{8}6x,5/6,5/6,{16}4,5,
{4}4xpp8[8:3]*qq8[8:3],,,1xw5b[8:1],
{32}B1,Cf,{16}B6/B5/B4,,,{8}3/7-3[8:1],7/3-7[8:1],,,{4}1-5[8:1],
{2}5-3[8:1]/1-7[8:1],{8}2h[8:1],3h[8:1],4h[8:1],5h[8:1],
{4}6,{8}2/8,2-8[8:1]/8-4[8:1],,8/2-6[8:1],,2/5h[8:5],
,,{4}6,{16}4,5,4,5,3,4,3,4,
{4}2b,{8}6/2-6[8:1],2/6-2[8:1],,7,,8,
{24}2b/1bh[8:1],3,4,5,,,,,,7b/8bh[8:1],6,5,{4}4,{24}1b/8b,2/7,3/6,4/5,,,{4}2b-5[8:1]/7b-4[8:1],
2/7,{8}3/6-3[8:1],6/3-8[8:1],,,2,
2,3,3,4h[4:1],{24}8,7,6,{8}5w1b[8:1],{24}2,3,4,
{32}5bx,Cf,,,,,,,{8}3/7-3-6[4:1],7/3,,,{4}8-4[8:1],
{2}8<5[8:1]/4>1[8:1],{8}2,3,4,5,
{4}6b/7b,3b/2b,{8}1b/8b,1bs5[8:1]/8bz4[8:1],{32},,,,1b/8b,Cf/B7/B6/B2/B3,,,,,,,,,,,{4}3/4h[4:1],
{16}1,4,2,5,3,6,4,7,
{4}5bx>2[8:1],{8}5<8[8:1],7,5-1[8:1],3,{4}5,
3b/4b<7[8:1],{8}4>1[8:1],2,4-8[8:1],6,{4}4,
{8}2/7b-4[8:1],2,2/7,2,2/1b-5[8:1],2,2/1,2,
{16}4b,3,4,3,5b,4,5,4,6b,5,6,5,7b,4,6,5,
{8}7bh[8:1],{16}8,7,2,1,4,5,8,6,1,7,2,8,3,1,
2,4,3,5,8,7,2,1,4,5,3,6,2,7,{24}1,8,1,
{16}8x,2,7,3,6,4,5,3,7,8,6,1,5,2,4,3,
6,5,7,3,4,2,6,5,{8}8,{24}4,5,4,{8}5,7h[8:1],
{16}5x,6,8,4,3,1,5,6,{8}8,{24}7/8,6/1,5/2,{4}4x/3xh[4:1],
{16}4x,3,1,5,6,8,4,3,{8}1-6[8:1],{24}2,3,4,{4}1bx/5,
{8}5x/7x,{16}7,5,{8}7,7/8,2x/1x,{16}2,4,{8}2,2/5,
{16}1x,6,5,6,1x,5,4,5,1x,4,3,4,{32}1x,2,3,4,5,6,7,8,
{4}6xh[8:1]/1bx-4b[8:1],6h[8:1],6h[8:1]/4x-8b[8:1],6h[8:1],
6h[8:1]/8x-4b[8:1],6h[8:1],6h[8:1]/4x-1b[8:1],6h[8:1],
2h[8:1]/6x-1[8:1],2h[8:1],2h[8:1]/1x-5[8:1],2h[8:1],
2h[8:1]/5x-8[8:1],2h[8:1],2h[8:1]/8x-4[8:1],2h[8:1],
5h[8:1]/2x-7b[8:1],5h[8:1]/A2,5h[8:1]/7x-3b[8:1],5h[8:1]/A7,
5h[8:1]/3x-8b[8:1],5h[8:1]/A3,5h[8:1]/8x-4b[8:1],5h[8:1]/A8,
1h[8:1]/5x-8[8:1],1h[8:1]/A5,1h[8:1]/8x-4[8:1],1h[8:1]/A8,
1h[8:1]/4x-7[8:1],1h[8:1]/A4,1h[8:1]/7x-4[8:1],1h[8:1]/A7f,
{16}2b,4,2,4,3,5,3,5,1,2,3,4,8,7,6,5,
3,6,3,6,2,5,2,5,1,2,3,4,8,7,6,5,
{4}3b/4b,5b/6b,{8}1b/8b,1b/8b,,8b/7b,
{24}8x/7x,1,2,7,6,5,1,2,3,6,5,4,{32}B1,B2,B3,B4,B5,B6,B7,B8,{4}B1f,
4bxh[8:1]/7bxh[8:1],{16}7,4,6,5,7,4,6,5,7,4,{8}6,
{4}5bh[8:1]/2bh[8:1],{16}2,5,3,4,2,5,3,4,2,5,{8}3h[8:1],
{16}4x,3,8,1,6,5,{8}7h[8:1],{16}6x,7,4,5,2,3,{8}1h[8:1],
{16}3x,1,4,2,5x,3,6,4,3x-6[8:1]/7x-2[8:1],2/6,1/5,8/4,{32}7x/3x,Cf,,,,,,,1bxq3[4:7]/5bxq7[4:7],
2x/6x,{16}3x/7x,
E
