&title=Warlords of Atlantis
&artist=Sakuzyo
&first=0
&des=mai-Star@DP皆伝
&des_5=mai-Star@DP皆伝
&wholebpm=140
&lv_5=14
&inote_5=(140)
{16}
,,,,
,,,,
,,,,
,,,,
{16}
8,1,,1-6[16:3],
,,7h[16:9],,
,,,,
,,,6,
{16}
,7,,7,
,,8,8,
,,,8,
,,1-6[16:10],1-4[16:10],
{16}
,,,,
,,,,
,,,,
,,,,
{16}
6h[8:2],,,,
,,,,
5h[8:2],,,,
,,,,
{16}
4,5,,5-2[16:3],
,,3h[16:9],,
,,,,
,,,2,
{16}
,3,,3,
,,4,4,
,,,4,
,,5-2[16:6],5-8[16:6],
{16}
,,,,
,,,,
,,,,
2h[8:2],,,,
{16}
3h[8:2],,,,
4,,,,
5,,6,,
7,5,7,5,
{16}
8b,,,,
3,4,,1,
7,,2,,
6,4,,7,
{16}
1,,6,,
2,4,,1,
7h[8:2],,2-7[16:4],,
3,,,,
{16}
4,,,,
2,4,,1,
7,,2,,
6,4,,8,
{16}
2,,6,,
2,4,,1,
8h[16:6],,,3-6[16:3],
,,2h[16:4],,
{16}
,,,,
6,4,,5,
1,,7,,
3,5,,4,
{16}
8,,3,,
7,5,,6,
1,,6-3[16:3]/3,,
2,,1h[8:2],,
{16}
,,,,
5,4,,6,
1,,7,,
3-6[16:3],5,,2,
{16}
8h[16:2],,,,
7,,,3,
4,,2-5[8:1],,
,4-1[8:1],,,
{16}
7b,,,,
7,,,2,
5,,3,,
7,1,,2,
{16}
5,,4,,
6,5,6,5,
6,,8-5[8:1]/4,,
2,,,,
{16}
1,1h[16:3],,,
5,8,5,8,
5,,67,,
78,,81,,
{16}
2,,7,,
3,5,,2,
1h[8:1],,3,4h[8:1],
,1,8h[8:1],,
||
+
{16}
3,,2,,
7,8,6,2,
1,,48,,
6,5,6,5,
{16}
7,,2,,
7,1,5,3,
4,,35,,
6,5,6,5,
{16}
8,,1,,
7,1,5,3,
6,,26,,
3-7[8:4],5,4,6,
{16}
3h[8:6],,,,
,,,,
,,,,
6,4,6,4,
{16}
8b,,,,
82,,8,1,
7,2,6,,
6,,68,,
{16}
1,7,3,,
24,,3,5,
4,6,5,,
4,6,5,7,
{16}
2,1h[16:3],,,
4h[16:4],,{32}
1,8,7,6,
{16}
5,,3h[16:4],,
{32}
2,1,8,7,
{16}6,,
{12}
2-5[8:1]/4-8[8:1],1,1,
{16}
24,,,,
6>3[8:1],,7h[8:2],,
6-1[8:1],,,,
{16}
3h[8:2],,,,
1,,,,
34,,1,,
4,3,1,,
{16}
5,8h[8:1],,6,
8h[8:1],,7,8,
7,8,7,,
1,,24,,
{24}
3,5,3,5,3,5,
{16}
4>1[8:1],,,,
8-4[8:1],,7,,
7,,,,
{16}
3,5,4,6,
2,,{24}
2,5,3,
6,4,7,
{16}
1,,
1-5[8:1],7,3,5,
{16}
1b,,,,
6,,4,5,
3,6,2,,
6-3[16:2],5,5,5,
{16}
7,,,,
7,8,6,4,
5,3,4,,
{24}
5,3,5,3,5,3,
{16}
7,8h[16:3],,,
5h[16:2],,{32}
8,1,2,3,
{16}
4,,6h[16:4],,
{32}
7,8,1,2,
{16}3,,
{16}
7-4[8:1],4-7[8:1],6,5,
,,,,
3-8[8:1]/8-3[8:1],,2/1,,
,,,,
{16}
1/6-1[8:1],,,,
6-2[8:1]/5,,,,
8,,8h[8:2],,
,,2,,
{16}
8,1,7,3,
8,8,5,6,
4,7,2,1,
1-5[8:1],,5,,
{16}
4-7[8:1],,3,,
2,,1,,
1,8,2,7,
3-7[8:3],6,4,5,
{16}
3h[8:3],,,,
,,,,
3,6,3,6,
1-5[8:1],8,1,8,
{16}
1b,,,,
6,4,,4,
1,4,8,3,
7-2[8:1],2,6,,
{16}
7/2-7[8:1],,3,,
4-8[8:1],,3
,2,
1,,3,,
4-1[8:1],,1,,
{16}
,,6,,
6,8,,8,
6,1,5,2,
6-3[8:1],3,6,,
{16}
3-6[8:1],,2,,
1-5[8:1],,2,3,
4,,4h[8:1],,
6,2h[8:1],,6,
{16}
8h[8:1],,7,,
7,1,,1,
5,2,6,3,
7-3[8:1],4,8,,
{16}
7/3-7[8:1],,4,,
5-8[8:1],,4,3,
2,,2h[8:1],,
6,4,,4,
{16}
8h[8:1],,3,,
6-1[8:1],5,,5,
6,,3,,
2-5[8:1],1,,1,
{16}
2,,7,,
6-3[8:1],5,,5h[16:5],
6,,,,
2,1,8,7,
{16}
6/5b,,4,5,
3,,72,7,
1,8,2h[8:1],,
4,3,5h[8:1],,
{16}
6,7,8,1,
2/7,,6,3,
5,4,64,6,
3,,3,,
{16}
6,3,5,4,
6,,27,2,
8,1,7h[8:1],,
4,5,3h[8:1],,
{16}
2,1,8,7,
6h[8:1]/2,,7,8,
1,2,3/7,,
51,,,,
{16}
4,6,3,5,
2,,73,7,
1,8,2h[8:1],,
4,3,5h[8:1],,
{16}
6,7,8,1,
2/7,,4,5,
3,6,46,4,
7,,7,,
{16}
5,6,4,7,
2,1,3,8,
2,6,3,7,
4,8,5,1,
{16}
6,5,4,3,
7,6,5,4,
{32}
8b,7,6,5,
4,3,2,1,
8-4[8:8],7,6,5,
4,3,2b,,
{16}
8h[8:8],,,,
,,,,
,,,,
,,,,
{16}
,,,,
,,,,
,,,,
,,,,
{16}
,,,,
,,,,
,,,,
,,,,
{16}
,,,,
,,,,
,,,,
,,,,
{16}
,,,,
,,,,
,,,,
,,,,
{16}
,,,,
,,,,
,,,,
,,,,
