&title=Signal
&artist=rejection feat. Such
&first=0
&des=Alkane respect for シチミヘルッ
&lv_5=14
&inote_5=(175)
{8},,,,,,,,
7h[2:1]/4h[4:1],,,,5,,4/6,,
2h[4:1]/4h[4:1],,,7h[4:1]/5h[4:1],,,4,,
6h[4:1]/3h[4:1],,,4/5,,,6pp1[2:1],,
2h[8:1],,3h[8:1],,4h[8:1],,5h[8:1]/1h[8:1],,
{16}7h[4:1]/3h[4:1],,,,,,,,2/5,,,,6h[4:1],,,,
3,,3,,4/7,,5/6,,,,2/4,,,,1/8,,
7/2,,,,3,,4,,2,,5-1[8:1],,,,5/2-6[8:1],,
,,8w4[8:1]/2,,,,8,,,,,,,,,,
5b<2[2:1],,,,4h[8:1],,,,4h[8:1],,,,4h[8:1],,,,
4b>7[2:1],,,,5h[8:1],,,,5h[8:1],,,,5h[8:1],,,,
5b<3[2:1],,,,4h[8:1],,,,4h[8:1],,,,4h[8:1],,,,
4b>6[2:1],,,,5h[8:1],,,,5h[8:1],,,,5h[8:1],,,,
6/4,,6,,3/5,,3,,7/4,,6,,2/5,,3h[16:1],,
7/5,,6,,2/4,,3,,7/2,,7h[16:1]/2h[16:1],,1/8,,1/8,,
7b/2bq5<3[1:1],,,,,,,,,,,,,,,,
,,,,,,,,E7,,B6,,,,,,
4b>8[2:1],,,,,,,,8<4[2:1],,,,,,,,
4>8[2:1],,,,,,,,8<4[2:1],,,,,,,,
4b>7[2:1],,,,,,,,7<2[2:1],,,,,,,,
2<5[2:1],,,,,,,,5>8[2:1],,,,,,,,
7,,7,,6,,6,,5/1,,5/1,,2h[8:1]/4h[8:1],,,,
1,,1,,8,,8,,2/7,,2/7,,3h[32:1]/6,,3/6h[32:1],,
4,5,4,5,3,6,3,6,2,7,2,7,1,8,1,8,
1bs5[2:1],,,,,,,,7-3b[8:1],,,,7b,,,,
2h[16:1],,,,7,8,7,,3,4,2,4,3,4,3,,
6,5,6,,2,1,3,1,2,1,2h[16:1],,8,,3,4,
3,4,3,,8,1,8,,6,5,7,5,6,5,6,,
3,4,3,4,3,6,5,6,5,6,5h[8:1],,8-4[8:1],,5,,
8b,,,,3,3,4,,2,1,3,1,2,1,2h[16:1],,
6,5,6,,1,8,2,8,1,8,2,7,3,6,4,5,
4hb[2:1],,,,E7,,B6,,,,C,,,,6h[2:1],,
,,E1,,B8,,C,,B4,,E5,,,,,,
7b/1b,,,,3,4,3,,6,5,7,5,6,5,7,,
2,1,2,,7,8,6,1,7,8,7h[16:1],,1,,6,5,
7,5,6,,3,4,3,,8,1,8,1,7,2,8,,
5,6,4,5h[16:1],,2,1,3,8,4,7,,5-1[8:1],,8,,
5b,,,,7,8,7,,3,4,2,4,3,4,2,,
6,5,6,,2,1,3,1,2,1,3,,7,,1/8,,
2-5[8:1]/1,,,,2/8,,,,8-5[8:1],,4-1[8:1],,8,,4,,
7-4[8:1],,8,,7/2-5[8:1],,1,,2/8-5[8:1]/8?-3[8:1],,,,8b,,,,
2-5[8:1],,1,,2/8,,,,7-3[8:1],,3-7[8:1],,7,,2,,
1,,,,2-6[8:1],,1-5[8:1],,2<3[4:1],,1,,2,,,,
7-4[8:1],,8,,7/1,,,,2-5[8:1],,5V38[16:3],,6,,7,,
6-3[8:1],,6,,1-4[8:1],,1,,8-5[8:1]/8?-3[8:1],,7,,8,,,,
6-1[8:1],,4/5,,6/3,,,,2-5[8:1],,1<6[8:1],,2,,1,,
4,,,,1-3[8:1],,8-4[8:1],,1-5[8:1],,8-6[8:1],,1>8b[2:1],,8,,
1b,,,,,,,,3,,,,3,,4,,
2-5[8:1]/5-1[8:1],,,,2/5,,,,7-4[8:1]/4-8[8:1],,,,4/7,,,,
1bV35V71>1[4:15],,,,,,,,,,,,,,,,
,,,,,,,,,,,,,,,,
,,,,,,,,,,,,,,,,
,,,,,,,,,,,,,,,,
E2,,,,E3,,,,E4,,,,E5,,,,
E1,,,,E8,,,,E7,,,,E6,,,,
B2/A2,,,,A3/B3,,,,B4/A4,,,,B5/A5,,,,
A1/B1,,,,B8/A8,,,,A7/B7,,,,A6/B6,,,,
2h[4:1]/5hb[2:1],,,,,,3,,3,,,,5/6,,,,
7hb[4:1]/4h[4:1],,,,,,2hb[4:1]/5h[4:1],,,,,,3/6,,,,
7hb[4:1]/2hb[4:1],,,,,,1/8,,,,,,7/2pp5[2:1],,,,
1hb[8:1],,,,8hb[8:1],,,,7hb[8:1],,,,6h[8:1],,,,
6h[4:1]/4hb[2:1],,,,,,5,,5,,,,3/6,,,,
3hb[4:1]/1h[4:1],,,,,,8h[4:1]/6hb[4:1],,,,,,2/7,,3/6,,
4hb[4:1]/5h[4:1],,,,,,3/6,,3/6,,2/7-3[8:1],,,,7/1-5[8:1],,
,,1/8w4[8:1],,,,8b,,,,,,,,,,
3b-7V15-1V73[4:6],,,,6h[8:1],,,,6h[8:1],,,,6h[8:1],,,,
7b,,,,6h[8:1],,,,6h[8:1],,,,6h[8:1],,,,
6b-2V84-8V26[2:3],,,,3h[8:1],,,,3h[8:1],,,,3h[8:1],,,,
2b,,,,3h[8:1],,,,3h[8:1],,,,3h[8:1],,,,
3/4,,3,,2/5,,2,,1/6,,1,,7/8,,8,1,
2/6,,6,,3/7,,7,,4/8,,8,,1/5,,1,8,
7bq1[4:3]/3bq5[4:3],,,,,,,,,,,,,,,,
,,,,,,,,B3,,B4,,,,,,
5b<1[2:1],,,,,,,,1>5b[2:1],,,,,,,,
5<1[2:1],,,,,,,,1>5b[2:1],,,,,,,,
5b<2[2:1],,,,,,,,2>7b[2:1],,,,,,,,
7>4[2:1],,,,,,,,4<1b[2:1],,,,,,,,
2,,2,,3,,3,,4/8,,4/8,,7h[8:1]/5h[8:1],,,,
7/8,,7/8,,1/6,,1/6,,2/5,,2/5,,3h[32:1]/4,,3/4h[32:1],,
2,1,3,8,4,7,5,6,{32}5,6,7,8,1,2,3,4,5,6,7,8,1,2,3,4,
{16}5bV31>5[2:1]/1bV75<1b[2:1],,,,,,,,,,,,,,,,
1h[4:7],,,,Chf[2:3],,,,B2,,B8,,B3,,B7,,
B4,,B6,,B5,,B4,,B6,,B2,,B8,,,,
3V16[4:1],,,,6V83[16:3],,,,5pp1b[8:5],,,,2h[16:1],,2h[16:1],,
2-5[8:1],,,,2,,,,3-8[8:1]/7-4[8:1],,,,7/3,,,,
6>2[4:1]/2v5[8:1],,,,2<6[4:1]/6,,,,4qq8b[8:7],,,,,,5,,
6,,6,,7-3[8:1],,,,7,,,,2/6,,,,
5h[8:3],,,,B3/E3,,B4/E4,,,,3/6,,,,4h[2:1],,
7,,7,,6,,6,,5-8[8:1]/4-1[8:1],,,,4b/5b,,,,
7b/2b,,,,3,4,2,5,1,6,8,7,1,8,2,7,
3,6,4,6,5,6,4,7,2,8,1,8,2,1,3,8,
4,7,5,6,4,5,3,6,2,7,1,7,8,7,1,6,
2,5,3,5,4,5,3,6,2,7,1,8,{24}1,2,3,7,6,5,
{16}4b/2b,,,,2,8,3,7,4,6,8,6,1,5,2,4,
1,7,2,6,3,5,4,6,3,7,2,8,{32}2,3,4,5,6,7,8,1,
{16}2hb[2:1],,,,7,,,,8z4[16:3],,8,,,,1h[2:1],,
,,,,7,,6,,5w1b[8:1],,,,5b,,,,
7b<4[8:1],,1/8,,7/2,,,,1-3[8:1],,3V15[4:1],,1,,6,,
7,,,,8-4[8:1],,1-3[8:1],,8<1[4:1],,1,,8,,,,
8-4[8:1],,,,8/6,,,,7-4[8:1],,4V61[16:3],,3,,2,,
3v8[8:1],,8V25[16:3],,7,,6,,7-3[8:1]/7?-4[8:1],,6,,7,,,,
2b>5[8:1],,1/8,,2/7,,,,8-6[8:1],,5,,8-4[8:1],,3,,8,,,,2-6[8:1],,5-8[8:1],,2>8[4:1],,5,,2,,,,
1-5[8:1],,,,1/2,,,,2-7[8:1],,6-3[8:1],,2,,6,,
,,7-3[8:1],,2/8,,7/3,,1-6b[8:1]/1?-4[8:1],,,,1b,,,,
2b-5[8:1],,3/4,,2/5,,,,7-5[8:1],,5V71[4:1]/5?V73[4:1],,7,,,,
,,,,1-5[8:1],,7-4[8:1],,1>7[4:1],,7,,1,,,,
8p4[8:1],,,,8/2,,,,2-5[8:1],,5V38[16:3],,6,,7,,
6v1[8:1],,1V74[16:3],,2,,3,,2-7[8:1]/2?-5[8:1],,3,,2,,,,
7b-4[8:1],,8,8,7,,1,,2-6[8:1],,6-2[8:1],,2,,5,,
4,,,,2-5[8:1],,6-1[8:1],,2-7[8:1],,6-3[8:1],,2>8b[8:3],,6,,
2b,,,,,,,,6,,,,7/1,,6/2,,
7-1[8:1]/1-5[8:1],,,,7b/1b,,,,6pp7[8:1]/6?qq5[8:1],,,,6b,,,,
4bpp4b[1:3]/4?qq4b[1:3],
