&title=流星花火
&artist=流星隊
&first=-0.1
&des=标量
&lv_5=13
&des_5=标量
&inote_5=
(154){4},{24},,,,,,,,,,,,,,,1,2,3,
{4}4bx-8b[8:1],{8}4b/3,1b,,,,,{4}5-1b[8:1],
{8}5b/6,8b,2/7,6/3,{4}5h[4:1]/4h[4:1],
{8},,2b/7b,{16}3x,4,{8}3,{16}6x,5,{8}6,{16}3x,4,
{8}2,{16}6x,5,{8}7,{16}3x,4,{8}1,{16}6x,5,{8}8,7bx/8bx,
{16}7bx/8bx,1/6,{8}2/5,,1x,5/4,8x,3/4,1x,
5/6,8x,2/4,1x,7/5,8x,2/7,2bx/1bx,
{16}1bx/2bx,3/8,{8}4/7,{16},,2x,1,{8}3,{16}7x,8,{8}6,{16}2x,4,
{8}3,{16}7x,5,{8}6,{16}3x,4,{8}3,{16}6x,5,{8}6,1bx/8bx,
{16}8bx/1bx,7/2,{8}3/6,,4x,8/1,5x,8/1,5x,
1/7,4x,2/8,6x,7/2,4x,3/6,1bx/8bx,
{4}7bx/2bx,{8}3h[8:3],4,5,6,,3,
4,5-8[4:1]*-2[4:1],{24},,,,,,,,,,,,B1,C,{6}B5,
{12},,,{4}1-4[8:1]/8-5[8:1],1/8,3h[8:1]/6h[8:1],
5h[8:1]/4h[8:1],1h[8:1]/3h[8:1],6h[8:1]/8h[8:1],7h[4:1]/2h[4:1],
{8},,,7>2[8:1],2-6[8:1],6-4[8:1],{4}B3,
C,{8}B7,B8,E1,B1,{16}B7/B2,B6/B3,E6/E4,B5/B4,
{8}E5,,,1-6[8:1],1-5[8:1],1-3[8:1],,,{4}7q5[4:1],
5q3[4:1],3q1[4:1],1<5[4:1],
{8},,,Ch[16:0],,5/4-8[8:1],8-5[8:1],5-3[8:1],
,,6,7,6/4,5pp5[8:1]*qq5[8:1],{4}5,
,1/8-4[8:1],{8}8/4,3,{4}3-6[8:1]/2-7[8:1],
3/2,8/2,{8}7v5[8:1]/2v4[8:1],8/1,{4}7/2,
Cf/B8/B1/B5/B4,{8}3h[4:1],1x,5h[4:1],1x,4h[4:1],8x,
6h[4:1],8x,3h[4:1],1x,5h[4:1],8x,4,8bx/1bx,
2bx/7bx,6xh[8:1]/3xh[8:1],,,{4}6p4[4:1],4/6,
1-5[8:1],{16}1/8,,,7,,,{8}6,{4}5h[2:1]/E7f,
E1f,{8}B2f,4x,3/5,6x,4/6,7x,
7/4,3x,6/3,2x,2/7,1x,1/8,1bx/8bx,
{16}8bx/1bx,7/2,{8}6/3,5,{16}5x/4,3x,{8}2x,{16}6x/4,3x,{8}2x,{16}7x/4,3x,
{8}2x,{16}3x/7,2x,{8}1x,7x/8x,1/2,3x/4x,{4}5-1b[8:1]/6-2b[8:1],
5x/6x,{8}7-4[8:1],8,7/1-5[8:1],8,{4}1-3b[8:1]*-7b[8:1],
1,6/8-5b[8:1],2/8-3b[8:1],8/6,
{16}2bx/5bx,6x/3x,{8}7x/4x,6/5,2,4/5,7,3/4,8,
2/7,3/6,{4}5-7[8:1]/4-7[8:1],4-2[8:1]/5-2[8:1],{16}5/4,,,1x,
8x,7x,{8}6x,{4}3-8[8:1],{8}3/4-8[8:1],5,{4}4-6[8:1]*-2[8:1],
4,7/8-5b[8:1],2/8pp3b[8:3],8/6,
{8},,6x<2[4:1],7,{4}6/2<6[4:1],6>3[4:1],
3,{16}2-4v5-7b[0.3896##0.7792],,,,{4}2/8,8,
8,1h/2-7[4:1],7-4[4:1],4-1[4:1],
1-6[4:1],6-3[4:1],3-8[4:1],8,
7x,6w2b[8:1],6,3w7b[8:1],
3,{16}B7/E7/B6/B2/B3/E3,,,4/5h[16:5],,,{8}4,{4}4<7[8:1],
4x/3x,{8}3,3,5,5,4/5,6/4,
{4}3-5[8:1]/7>1[8:1],7/3,,E8/B7/B6/E6/B5/B8/B1/B4/C,
3-1[8:1],{8}3/6-8[8:1],6x,4-2[8:1],4x,5-7[8:1],5x,
4-2[8:1],4x,5-7[8:1],5x,3,2x,2/8,1b>4[8:1]/7b<4[8:1],
7b/1b,,,3x/5x,1-3[8:1],1x,8-6[8:1],8x,
2-4[8:1],2,7-5[8:1],7x,3,2x,1/7,2b>5[8:1]/8b<5[8:1],
8b/2b,{16},,,,3x,4,{8}3,{16}6x,5,{8}6,{16}2x,4,
{8}2,{16}7x,5,{8}7,{16}1x,4,{8}1,{16}8x,5,{8}8,1b/2b,
{4}1b/2b,{16}3,4,3x,4,2,5,2x,5,1,6,1x,6,
8,7,8x,7,{8}1/6,8x/7x,6/1,5x/2x,4/3,1b,
{4}1w5b[8:1],A1f,{8}8-4[8:1],1/7,{4}8-6b[8:1]*-2b[8:1],
8,3/1-4b[8:1],7/1-6b[8:1],1/3,
{16}7bx/4bx,3x/6x,{8}2x/5x,4/3h[8:1],8,4/5h[8:1],1,5/6h[8:1],4,
7/2,3/6,{4}4-2[8:1]/5-7[8:1],5-1[8:1]/4-8[8:1],{16}4/5,,,2x/7x,
3x/6x,4x/5x,,,{4}6-1[8:1],{8}6/5-1[8:1],4,{4}5-3[8:1]*-7[16:3],
5,3/1-4b[8:1],7/1qq6b[8:3],1/2,
{8},,3x>7[4:1],2,{4}3/7>3[4:1],3<6[4:1],
6,7-5v4-2b[2:1],7/1,1,
1,8h/1<6[4:1],6>3[4:1],3>8[4:1],
8<5[4:1],5>2[4:1],2<7[4:1],7x,
6,4w8b[8:1],4,8w4b[8:1],
8,{16}B7/E7/B6/B2/E3/B3,,,5/4h[16:5],,,{8}5,{4}5>2[8:1],
6x/5x,{8}6,6h[8:3],4,4,5,5/6,
5/7,8/5,{4}1-6[8:1],1<4[4:1],1,
{8},,3h[8:3],4,5,6,7h[8:3],6,
5,4x,5x,4,3-7b[8:1],2,{4}3h[4:1],
,5-8[8:1]/4-1[8:1],{16},,,,,,,,3,
5,{8}4,{4}4-7-3-1[2:1]/5-2-6-8[2:1],{2}5/4,
{8},,8<4[4:1],3,2,1,8>3[4:1],7,
6,5,4-7[4:1],4,3,2,1,1/8,
7/2,6/3,2b/5b,{16}3,4,{8}3,4b/7b,{16}6,5,{8}6,
4bxw8[2:3],4b,,,,,,,,,,,,,,,{4}2<7[8:1]*<7[8:1],
{16}2,E1,{8}E8f,
E
