&title=むかしむかしのきょうのぼく
&artist=DECO*27
&first=0
&des=Dororo feat.Aimo
&lv_6=12+
&inote_6=(130)
{16}
,,,,,,,,,,,,,,,,
2,,2,,5h[256:1],,4,,4,,,,5h[256:1],,3,,
3,,,,5h[256:1],,4,,,,4,,5h[256:1],,4,,
2,,2,,5h[256:1],,3,,3,,,,5h[256:1],,3,,
3,,,,5h[256:1],,4,,,,4,,5h[256:1],,4,,
7,,7,,4h[256:1],,5,,5,,,,4h[256:1],,6,,
6,,,,4h[256:1],,5,,,,5,,4h[256:1],,5,,
7,,7,,4h[256:1],,6,,6,,,,4h[256:1],,6,,
6,,,,4h[256:1],,4z8[4:1],,,,,,,,,,
7h[4:1],,8,,1-6[8:1],,2,,3h[4:1],,,,5-3[8:1],,6,,
7h[4:1],,,,2-6[8:1],,8,,,,8,,1,,8,,
3h[4:1],,2,,1-4[8:1],,8,,7h[4:1],,,,5-7[8:1],,4,,
3h[4:1],,,,8-4[8:1],,3,,,,3,,4,,3,,
2h[4:1],,1,,8-3[8:1],,7,,6h[4:1],,,,4-6[8:1],,3,,
2h[4:1],,,,7-3[8:1],,1,,,,1,,8,,1,,
6h[4:1],,7,,8-5[8:1],,1,,2h[4:1],,,,4-2[8:1],,5,,
6h[4:1],,,,1,,18,,,,3,,3b^5[8:1],,,,
8,,8,,5h[8:1]/7h[8:1],,,,4,,3,,2h[8:1]/5h[8:1],,,,
7,,7,,3,,3,,45,,,,6b^4[8:1],,,,
1,,1,,2h[8:1]/4h[8:1],,,,5,,6,,7h[8:1]/4h[8:1],,,,
2,,2,,6,,6,,4-1[8:1]/5-8[8:1],,,,45,,,,
1h[8:1]/8,,,,1,,2,,5/3h[4:1],,,,4>1[8:1],,5,,
7h[8:1]/4,,,,8,,17,,2/6h[4:1],,,,5<8[8:1],,4,,
5/3h[8:1],,,,7,,8,,1h[8:1]/6h[8:1],,,,5,,4,,
6-8[8:1],,6,,2-4[8:1],,2,,8-4[8:1],,8,,1b,,,,
3p6[4:1],,3,,6q3[4:1],,,,5h[4:1],,,,,,5,,
6v3[4:1],,6,,3p6[4:1],,,,4h[4:1],,,,,,4,,
2-4[8:1],,2,,7-5[8:1],,7,,1-3[8:1],,1,,8-6[8:1],,8,,
2q2[4:1],,2,,,,,,7p7[4:1],,7,,,,,,
1-4[8:1],,1,,8-5[8:1],,8,,3,,4,,5,,6,,
4-2[8:1],,4,,6-8[8:1],,6,,1-5[8:1],,,,5,,6,,
7h[8:3]/3h[8:3],,,,,,,,3-8[8:1],,7-3[8:1],,3,,7,,
1-5[8:1],,,8,1,,7,,6b-3[8:1]/4b-7[8:1],,,,6b/4b,,,,
1-4[8:1],,1,,8,,7,,8-5[8:1],,8,,1,,2,,
3-8[8:1],,3,,4,,5,,6-1[8:1],,6,,5,,4,,
3-8[8:1],,3,,6-1[8:1],,6,,2-5[8:1],,2,,7-4[8:1],,7,,
2b>5[8:1],,,,2/7b>2[8:1],,,,4b-8[8:1]/7b-4[8:1],,,,4b/7b,,,,
1>4[8:1],,,,16,,7,,8<5[8:1],,,,38,,2,,
1q5[8:1],,,,15,,6,,7p3[8:1],,,,37,,2,,
1-5[8:1],,1,,7-4[8:1],,7,,2-5[8:1],,2,,8-4[8:1],,8,,
1,,1,,5p4[8:3],,5q6[8:2],,,,,,,,,,
3,4,3,,25,,1,1,,,56,,47,,8-4[2:1],8-3[16:7],
,,,,,,,,,,,,1b,,,,
7^4[8:1],,6,,8^3[8:1],,1,,8^5[8:1],,7,,1^4[8:1],,2,,
1^6[8:1],,8,,2^5[8:1],,3,,,,8,,8,,1,,
6-8[8:1],,7,,5-3[8:1],,4,,5-7[8:1],,6,,4-2[8:1],,3,,
4-6[8:1],,5,,3-1[8:1],,2,,,,4,,35,,26,,
7-4[8:1],,6,,8-3[8:1],,1,,8-5[8:1],,7,,1-4[8:1],,2,,
1-6[8:1],,8,,2-5[8:1],,3,,,,6,,6,,5,,
7>3[4:1],,,,3<7[4:1],,,,7,,8,,1,,2,,
3-8[8:1],,6q1[4:1],,3,,6,,,,,,2,,2,1,
2^5[8:1],,3,,1^6[8:1],,8,,1^4[8:1],,2,,8^5[8:1],,7,,
8^3[8:1],,1,,7^4[8:1],,6,,,,1,,1,,8,,
2q6[8:1]/6v1[8:1],,,,2/6>8[4:1],,,,7,,7h[4:1],,,,1h[4:1],,
,,3h[4:1],,,,5,,4,,5,,3v8[8:1]/7-4[8:1],,,,
37,,,,,,2^5[8:1],,1,,8,,7^2[8:1],,6,,
5,,4^7[8:1],,,,2h[4:1],,,,8,,17,,26,,
3b>6[2:1],,,,6,,,,5,,,,4,,3,4,
3-8[8:1],,,,1,,,,7-4[8:1],,,,5,,3,,
3>6[2:1],,,,6,,,,5,,,,4,,3,4,
3v6[8:1],,,,6,,,,5-2[8:1]/4-7[8:1],,,,45,,,,
6<3[2:1],,,,3,,,,4,,,,5,,6,5,
6-1[8:1],,,,8,,,,2-5[8:1],,,,4,,6,,
6h[4:1],,,,8,,8h[4:1],,,,2,,2h[4:1],,,,
4,,4h[4:1],,,,5,,46,,7,,35,,2,,
2h[4:1],,8,,7,,6,5,6,5,6,,47,,3,4,
3h[4:1],,2,,1,,8,3,8h[4:1],,4,,3,,2,1,
2h[4:1],,8,,7,,6,5,7,5,6,,48,,3,4,
3,,5,,2,,6,5,6,,4,,7,,7,8,
7h[4:1],,1,,2,,3,4,3,4,3,,25,,6,5,
6h[4:1],,7,,8,,1,6,1h[4:1],,5,,6,,7,8,
7-3[1:2],,,,,,,,,,,,,,,,
,,,,,,,,,,,,,,,,
,,,,,,,,,,,,,,,,
,,,,,,,,,,,,,,,,
E
