&title=unisonote
&artist=onoken
&first=0
&des=Tigeo
&lv_5=14
&inote_5=(168){1},{4},,,
{16},,,{32}B2,B3,{4}B4/5,6,7,8/B4,1,2,3,4,5/B2,6/B4,7,8,1,2,{8}26,5,4h[4:1]/3,,
{8}1,,2,,3/B7,,4,C,5,,6/B2,,7,E2,8,,1,B5,2,,3/B7,,4,C,5,,6/B2,,7,E2,8,,
{4}5<3[4:2]/3,,1h[4:2],,4h[4:1],3h[4:1],5h[4:1],
{8}3,2,{4}1h[4:2],,7<4[4:1],4>1[4:1],1p8[4:2],,,,
4>6[4:2]/6,,8h[4:2],,5h[4:1],6h[4:1],4h[4:1],
{8}6,7,83,4,5,6,2,3,4,2,3,4,5,6,7,8,1,2,
5b/3b,5-7[8:1]/3,,4h[8:3],,,1,1,3,3,5,5,2,2,4,4,
2/6<4[4:2],26,,,4<2[4:2],,,,2V48[4:2],,,,2h[4:2],,,,
6-4[8:1],7,63,2-6[8:1],1,28,
7,7,5,5,6,6x,2,2,4,4x,
3/5-7[8:1],4,35,4-8[8:1],3,46,
7,7,3,3,5,5,4>8[4:1]/6,7,
8V25[8:3]*V63[8:3],,,,,,
7>3[4:1]/4h[8:3],,,{16},,5-1[8:1],,,1V73[4:1],,,7,,{8},6,6h[4:1],,2-6[8:1]*-4[8:1],1,2,,5<1[4:1]/2h[8:3],,,{16},,3-8[8:1],,,8V25[4:1],,,6,,{8},,
{16}8,7,6,5,4/2qq3[8:3],,,,7,,6,,5<2[4:1],,,,,,,,
{16}3,3,5,4,6,5,7h[4:1],,,,C,,8,7,6,5,{8}4pp8[8:3]/3h[4:1],,,,
2-5[8:1],1,26,7v4[8:1],8,7/3>8[8:1],2,35,
6,{16}7<4[8:1],4,4,,7>2[8:1],2,2,,7-3[8:1],4,4,,7,,
{8}1b>4[8:1],,17,8-6[8:1],5-1[8:1],8,5,,7<4[8:1],,73,2-5[8:1],1-6[8:1],2,1,,
3>8[4:1],,8<5[4:1],,5>2[4:1],,2p8[4:2],,6h[4:2],,,,,5,46,,
2>5[8:1],,26,7-3[8:1],3-8[8:1],7,4>1[8:1],,4-6[8:1]/8-4[8:1],,48,,,
3,24,1,8<6[8:1]/2,,8/5-1[8:1],,5/2>4[8:1],,28,,
87,6,5,34,2,1,8/7<5[8:1],,
1h[4:1],,{16}3,2,1,8,37,6,{4}5<8[8:1]/1>4[8:1],1v6[8:1]/5v2[8:1],5<8[8:1]/1>4[8:1],1/5p4[4:1],{8}7,7h[4:1],,
1,2,37,4,53,6,7,8<5[8:1]/4>1[8:1],,8q4[8:1]/4q8[8:1],,8/4V26[4:1],,7,5h[4:1],,
1>4[8:1],,17,8v3[8:1],,4>1[8:1]/8<5[8:1],,8v3[8:1]/4v7[8:1],,84,,6<3[4:1]/2,,3,3,4,
8b/5,7,62,3,47,6,51,2,3/8b,7,62,3,47,6,25,1,
87,87,65,65,34,34,12,12,
{16}8,2,7,3,6,4,5,3,{24}7,6,5,1,2,3,8,7,6,2,3,4,
{4}5b>7[4:12]/1b<3[4:12],,,,,,,,,,,,,,
{8}E5,E7,E1,E3,5b-8[4:1]/4,,,,B1/B2/E2,,,2,3<6[4:1],,6q3[4:1],,C,,5,6,7-3[4:1],,,,B1/B2/E2,,5<8[4:1],,8qq1[4:2],,3h[4:2],,,,,,
84,8,73,7,62,6,51,5,E6/1,1,2/E7,2,3/E8,3,48,4,15,15,48,48,{16}7,3,6,2,5,1,4,8,{4}3h[4:1],7h[4:1],4h[4:1],
{16}6<3[16:5],7>4[16:5],8>5[16:5],1>6[16:5],{4}2/6b,,
{8},1,1-5[8:1]/8,,1/7<4[8:1],,37,2-5[8:1],8-5[8:1],2,8,,1>5[4:1]/7,6,5q3[4:1],5,,,
{16}6,7,8,1,{8}2/5-1[8:1],,57,6-8[8:1],2-6[8:1],6,2,,
1/7<4[8:1],,47,2-5[8:1],5-1[8:1],2,8>3[8:1],,
8/7<4[8:1],,7/4p7[4:1],,7<3[4:1],,3>3[4:2],,1h[4:3],,,,,,
{16}2,1,8,7,{12}62,4,3,7,5,6,1,3,2,8,6,7,
{8}5w1[8:1]/4,,5bV74[4:1],,35,1,8>3[8:1],,8b<5[8:1]/6,,8b/4w8[8:1],,4b,,
5,6,7-3[8:1]*-4[8:1]/1,,7b,,12,4b-8[8:1]/8,,46,7w3[8:1],,7b,,15,26,3/7<4[8:1],,
7b/3>8[8:1],3,7-4[8:1],7,3-8[8:1],3,6-1[8:1],6,6b/3b>8[8:1],4,3b/5<8[8:1],4,5b/2v7[8:1],3,2b/6b<1[8:1],5,
6b/4b,4,8,8,5,5,7,7,2b-4[8:1],2,6-8[8:1],6,5-3[8:1],5,1-7[8:1],1,
2b-5[8:1],6-1[8:1],2,6,3v8[16:1],7v4[16:1],3-6[16:1],7-2[16:1],3b>8[16:1],7<4[16:1],3,7,
{16}1,5,2,6,3,7,4,8,1h[32:7]/5,,,,
{32}2b/8b,3pp6[4:11]/7,46,5,
