&title=ラストスコア (feat. 初音ミク)
&artist=せきこみごはん/初音ミク
&first=0
&des=Kimito
&lv_5=13
&lv_6=30
&inote_5=(134)
{1},
{16}3,5,4,6,4,5,3,,
{16}35,,46,,4,6,3,5,
{16}4,5,,3,,2,2,,
{16}1h[16:1]/7h[16:1],,2,8,1h[16:1]/7h[16:1],,2,8,
{16}3h/6h,,3h/6h,1,8,2,7,1,
{16}3h/6h,,3h/6h,8,1,7,2,8,
{16}1h,8h,2h,7h,3h,6h,4h,5h,
{24}4,5,4,5,4,5,36,,36,,36,,
{16}1b>4[8:1],,,,7,,,,
{16}8p4[8:1],,,,2,,,,
{16}3v8[8:1],,,,6,,,,
{16}7p5[4:1],,1,,2,,3,,
{16}4<7[8:1],,,,3,,,,
{16}1q5[8:1],,,,8,,,,
{16}7v4[8:1],,,,1,,,,
{16}1q4[4:1],,8,,7,,6,,
{16}5-2[8:1],,,,3,,,,
{16}8v5[8:1],,,,6,,,,
{16}7qq4[8:3],,8,,1,,2,,
{16}3-8[8:1],,,,6,,,,
{16}3,5,4,6,3,,46,,
{16}7h[8:1],,8h[8:1],,1h[8:1],,2,,
{16}8,2,7,1,8,,17,,
{16}2,,3,,4,,,,
{16}8b-4[16:1],,,,18,,,,
{16}4p8[8:1]*q8[8:1],5,4,,4b,,,,
{16}1b-5[16:1],,,,12,,,,
{16}6h[8:1],,7h[8:1],,8,2,1,3,
{16}4,4,5,5,6,6,7,7,
{16}8,8,1,1,2,2,3,3,
{16}4<8[4:1],,,,8>4[4:1],,,,
{16}4-8[8:1],,,,2,,,,
{16}4,5,4,5,4h[4:1],,,,
{16}7,6,7,6,7h[4:1],,,,
{16}1,8,1,8,1h[4:1],,,,
{16}3,2,3,2,3h[4:1],,,,
{16}4,,,,35,,,,
{16}46,,4,,53,,5,,
{16}36,5,4,3,5,4,3,2,
{16}7,6,5,4,36,,36,,
{16}1b,,2,4,3,5h[16:3],,,
{16}3,4,3,5,4,5,4,,
{16}26,,,15,,,4/8>3[8:1],,
{16},,8,,6,5,4,,
{16}8b,,7,5,6,4h[16:3],,,
{16}6,5,6,4,5,4,5,,
{16}73,,,84,,,5h[8:3]/1h[8:3],,
{16},,,,{32},48,37,26,{16},,
{16}2b/7b,,,,1,8,2,7,
{16}3h[16:3],,6,6,,,4,,
{16}35,,5,46,,4,3/5,,
{16},,45,,36,,27,,
{16}18,,,,6/3-1[16:1],,5,5,
{16}3b/6,,,,3/6-8[16:1],,4,4,
{16}3/6b,,,,36,,4,5,
{16}3-1[16:1]/6-8[16:1],,,,3b/6b,,,,
{16}1b,,2,3,4,5h[16:3],,,
{16}3,4,3,5,4,6,5,,
{16}26,,2,15,,1,4/8>3[8:1],,
{16},,58,,6,5,4,,
{16}8b,,7,6,5,4h[16:3],,,
{16}6,5,6,4,5,3,4,,
{16}73,,7,84,,8,5/1<6[8:1],,
{16},,41,,3,4,5,,
{16}2b/7b,,,,2,4,3,5,
{16}3h[16:3]/6,,5,6,,,3,,
{16}24,,6,57,,3,24,,
{16},,56,,34,,12,,
{16}78,,,,3-8[16:1]/6,5,4,5,
{16}3b/6,,,,6-1[16:1]/3,4,5,4,
{16}3/6b,,,,36,5,4,5,
{16}3/6,4,5,4,3qq5[1:1]/6pp4[1:1],5,4,5,
{16}3b/6b,,,,,,,,
{16},,,,,,,,
{16},,,,2-7[4:1],,,,
{16}7-4[4:1],,,,4-1[4:1],,,,
{16}1-6[4:1],,,,6-2[4:1],,,,
{16}2,,,,,,6,,
{16}6h[8:1],,3,4,3h[8:1],,6,5,
{16}6h[8:1],,3,4,2h[8:1],,6,5,
{16}7,,8,,1,,2,,
{16}3-8[8:1],,,,4,,,,
{16}1h[8:1]/6h[8:1],,,,2h[8:1]/7h[8:1],,,,
{16}8q4[8:1],,,7,7h[8:1],,,,
{16}8h[8:1]/3h[8:1],,,,7h[8:1]/2h[8:1],,,,
{16}1p5[8:1],,,2,2h[8:1],,,,
{16}3h[8:1],,6,5,6h[8:1],,3,4,
{16}3h[8:1],,6,5,7h[8:1],,3,4,
{12}2h,2h,2h,8h,8h,8h,
{16}6h,,35,,24,,13,,
{12}8h,8h,8h,6h,6h,6h,
{16}4b,,3,4,3,5,4,5,
{16}4,6,5,7,4,6,3,5,
{16}2h[2:1],,3,,1,,7,,
{16}5,,5,3,4,2,3,1,
{48}2b,1,8,7,6,5,,,,,,,{16},,4,4,
{16}25,,5,5,47,,4,4,
{12}25,47,16,38,27,16,
{16}38,,,,1,,8,,
{16}7h[8:1],,2,5,3,6,4,7,
{16}5,8,6,1,8,5,7,4,
{16}6-2[8:1],,,,2-6[8:1],,,,
{16}6,,7,8,1<1[8:3],2,3,4,
{16}1,,,,,,,,
{16}4,,35,,6,56,,2q6[8:1],
{16},6<1[8:1],,1>4[8:1],,4q7[16:5],,6,
{1},
{16}3,5,4,6,3,,,,
{16}3,5,4,6,3,,,,
{16}3,5,4,6,3,,6h[4:5]/4,,
{16},,,,3h[8:7],,,,
{16},,,,,,,,
{16},,,,27,,27,,
{64}1b/8b,27,36,,{16},,{64}1b/8b,27,36,,{16},,{64}1b/8b,27,36,,{16},
{16},,18,18,{64}1b/8b,27,36,45,{16},,,
{16}2b/7b,,,,2,3,4,5,
{16}3h[16:3]/6,,6,7,,,2,,
{16}13,,7,68,,3,24,,
{16},,56,,78,,12,,
{16}34,,,,6/3-7[16:1],5,4,5,
{16}3b/6,,,,3/6-2[16:1],4,5,4,
{16}3/6b,,,,36,5,4,5,
{16}3-7[16:1]/6-2[16:1],,,,3b/6b,,,,
{16}1b/6b,,2,3,4,5h[16:3],,,
{16}2,3,4,3,4,5,6,,
{16}26,5,2,15,4,1,4v1[16:1]/8v5[16:1],,
{16},,4/8,,3,4,5,,
{16}8b/3b,,7,6,5,4h[16:3],,,
{16}7,6,5,6,5,4,3,,
{16}73,4,7,84,5,8,5v8[16:1]/1v4[16:1],,
{16},,5/1,,6,5,4,,
{16}7b/2b,,,,7,6,5,4,
{16}6h[16:3]/3,,3,2,,,7,,
{16}8b/6b,,2,3b/1b,,6,7b/5b,,
{16},,4b/3b,,1b/2b,,7b/8b,,
{16}5b/6b,,,,,,3,2,
{16}1b,,6,7,8b,,3,2,
{16}1b,,6,7,8b,,3,2,
{16}1b/8b,,6,7,8b/1b,,3,2,
{16}1b/8b,7,2,8,1,7,2,,
{16}35,,46,,3,4,5,6,
{16}3,35,,45,,6,46,,
{16}36,,2,4,3,5,4,6,
{16}45,,3,5,4,6,3,5,
{16}2,1,8,7,2,1,8,7,
{16}2,28,,18,,7,17,,
{16}2,3,4,5,3,4,5,6,
{16}1b/8b,,2,8,1,7,2,,
{16}35,,46,,3,4,5,6,
{16}3,35,,45,,6,46,,
{16}36,,2,4,3,5,4,6,
{16}45,,3,5,4,6,3,5,
{16}2,1,8,7,2,1,8,7,
{16}2,28,,18,,7,17,,
{16}2,3,4,5,3,4,5,6,
E
&inote_6=(134)
{1},
{16}3,5,4,6,4,5,3,,
{16}35,,46,,4,6,3,5,
{16}3,4,,3,5h[4:1],,,,
{16}3,,3,5,4,6,5,6,
{16}36,4,5,4,6,4,5,4,
{16}36,5,4,5,3,4,5,6,
{16}3,6,4,5,3,6,4,5,
{24}4,5,4,5,4,5,45,,36,,36,,
{16}36,,4,5,4h[8:1],,6,,
{16}6,,34,3,6,5,4,3,
{16}6,,5,4,5h[8:1],,3,,
{16}6,5,4,3,6,5,4,3,
{16}63,,5,4,5h[8:1],,3,,
{16}3,,65,6,3,4,5,6,
{16}3,,4,5,4h[8:1],,6,,
{16}3,4,5,6,3,4,5,6,
{16}36,,4,5,3h[8:1],,6,,
{16}3,,56,5,6,5,4,3,
{16}6,,5,4,6h[8:1],,3,,
{16}4,6,3,5,4,6,3,5,
{16}3,4,5,6,3,4,5,6,
{16}3,4,5,6,3,4,5,6,
{16}3,4,5,6,3,4,5,6,
{16}5,6,5,6,3,5,4,5,
{16}3,,4,5,4,5,46,
{16},46,,5,4,5,4,35,
{16},35,,4,5,4,5,36,
{16},36,4,5,6,5,6,5,4,
{16}36,,4,4,4,4,36,,
{16}36,,5,4,6,4,5,3,
{16}6h[4:1]/3,,,,3h[4:1],,,,6h[4:1],,,,3,,,,
{16}5,5,5,5,5h[4:1],,,,
{16}4,4,4,4,4h[4:1],,,,
{16}5,5,5,5,5h[4:1],,,,
{16}4,4,4,4,4h[4:1],,,,
{16}6,,,,35,,,,
{16}46,,4,,53,,4,,
{16}36,5,4,3,6,5,4,5,
{16}4,3,5,4,36,,36,,
{16}36,,4,5,3,6h[16:3],,,
{16}3,4,3,5,4,6,5,,
{16}46,,5,53,,3,53,,
{16}35,,3/5h[8:1],,4,3,4,,
{16}63,,5,4,6,3h[16:3],,,
{16}6,5,6,4,5,3,4,,
{16}53,,4,46,,6,4h[8:3]/6,,
{16}5,,5,,6,,36,,
{16}35,,36,,5,6,5,6,
{16}4h[16:3],,5,6,,3,35,,
{16}6h[8:1]/5,,4,4/3h[8:1],,5,6h[4:1]/5,,
{16},,4,,45,,45,,
{16}36,,,,36,,4,5,
{16}3h[4:1]/6h[4:1],,,,,,4,5,
{16}3h[4:1]/6h[4:1],,,,,,45,45,
{16}3h[2:1]/6h[2:1],,,,,,,,
{16},,3,4,5,6h[16:3],,,
{16}3,4,3,5,4,6,5,,
{16}46,,5,53,,3,53,,
{16}35,,3/5h[8:1],,3,5,4,,
{16}35,,6,5,4,3h[16:3],,,
{16}6,5,6,4,5,3,4,,
{16}53,,4,46,,6,46,,
{16}35,,36,,5,4,36,,
{16}46,,35,,4,3,4,3,
{16}5h[16:3],,4,3,,6,46,,
{16}3h[8:1]/4,,5,5/6h[8:1],,4,3h[4:1]/4,,
{16},,6,,45,,45,,
{16}36,5,4,5,4,,5,,
{16}63,4,5,4,5,,4,,
{16}36,5,4,5,36,,5,,
{16}63,4,5,4,36,5,4,5,
{16}36,,,,,,,,
{16},,,,,,,,
{16}6,5,4,3,5h[8:1],,4h[8:1],,
{16}5h[8:1],,4h[8:1],,5h[8:1],,4h[8:1],,
{16}6h[8:1],,,,3h[4:1]/6h[4:1],,,,
{16},,,,3,4,5,6,
{16}6,5,4,3,3,,6,5,
{16}4,,5,4,3,,6,5,
{16}6,4,6,4,6,3,5,4,
{16}36,,,,5h[4:1]/4,,,,
{16}4,,3,,65,,3,,
{16}65,,3,6,5,,36,,
{16}34,,6,,34,3,6,,
{16}34,,6,,35,4,5,6,
{16}3,,4,5,36,,5,4,
{16}36,,4,5,6,3,4,5,
{12}36,4,4,36,5,5,
{16}36,,45,,36,,36,,
{12}36,4,4,36,5,5,
{16}36,,3,4,3,5,4,5,
{16}4,6,3,5,4,6,3,5,
{16}3h[2:1]/4,,5,,4,,5,,
{16}4,,3,4,3,4,5,6,
{16}4h[4:1],,,,6,,5,5,
{16}3,,4,4,6,,5,5,
{12}35,35,46,35,35,46,
{16}3,5,4,5,46,,35,,
{16}36,,3h[8:3]/4,,5,,6,,
{16}6h[4:1],,3,,4h[4:1],,5,,
{16}6h[4:1],,,,3h[4:1],,,,
{16}6,,3,5,4,5,4,6,
{16}3h[2:1],,,,,,,,
{16}5,,56,,56,56,,4,
{16}6,4,6,4,5,4,5,3,
{16}4h[4:1],,,,,,,,
{16},,,,,,,,
{16}6,4,5,3,5,,,,
{16}5,3,4,3,4,,,,
{16}6,5,4,3,,,,,
{16}6h[2:1]/4,,,,4h[4:1],,,,
(67)
{32},,3,4,5,6,,,
(134)
{16}5,6,4,5,3,4,3,,
{16}36,,,36,,,36,,
{16},,4,5,36,,,,
{16},,,,3,4,5,6,
{16}4h[16:3],,6,6,,5,35,,
{16}3,4,5,6h[8:1]/5,,4,3h[4:1]/4h[4:1],,
{16},,,,5,4,5,4,
{16}36,,,,36,,4,5,
{16}3h[4:1]/6h[4:1],,,,,,4,5,
{16}3h[4:1]/6h[4:1],,,,,,45,45,
{16}3h[2:1]/6h[2:1],,,,,,,,
{16},,6,4,5,3h[16:3],,,
{16}6,4,5,3,5,4,6,,
{16}36,5,4,36,4,5,36,,
{16}46,,35,,4,5,6,,
{16}63,,3,5,4,6h[16:3],,,
{16}3,5,4,6,4,5,3,,
{16}63,4,5,63,5,4,63,,
{16}53,,64,,5,4,3,,
{16}36,,,,6,5,4,3,
{16}6h[16:3],,3,3,,4,46,,
{16}6,5,4,3h[8:1]/4,,5,6h[4:1]/5h[4:1],,
{16},,,,4,5,4,5,
{16}36,,,,,,5,4,
{16}3,,4,5,6,,6,5,
{16}4,,3,4,5,,6,5,
{16}43,,3,4,56,,5,4,
{16}36,,4,6,3,5,4,,
{16}35,,46,,3,4,5,6,
{16}3,35,,45,,6,46,,
{16}35,,5,4,3,4,5,4,
{16}36,,5,3,6,4,5,4,
{16}6,5,4,3,6,5,4,3,
{16}6,56,,4,4,6,4,5,
{16}3,4,5,6,3,4,5,6,
{16}3,,6,4,5,4,6,,
{16}46,,35,,4,5,6,5,
{16}4,5,,36,,6,5,,
{16}35,,6,5,4,3,4,5,
{16}6,,3,5,4,5,3,,
{16}35,,46,,6,5,4,5,
{16}6,5,,36,,3,5,,
{16}3,4,5,6,3,4,5,6,
{16},,,,,,,,
E
