&title=HE4VEN ~天国へようこそ~
&artist=カモメサノエレクトリックオーケストラ
&des=えども~ん
&lv_5=13+
&inote_5=
(256)
{1},
{2}5b<4[2:7]/3h[2:1],,5,6,7h[2:1],,8,8,
{8}25,6,4,6,3,5,4,5,6,3,2,1,3,8,4,7b,7b/3,
5,4,6,2,5,1,8b,1/8b,7,3,5,4,6,2,8,
{12}2,3,4,6,5,6,3,4,2,6,5,7,2,3,4,7,6,5,1,2,3,7,8,7,1,2,3,5,6,7,2,1,2,7,8,6,1,2,3,45,6,7,82,3,4,56,7,8,
{8}12,21,,13,13,,56,56,,75,57,,,,87,71,,18,71,,45,53,,34,35,,,,
{8}56,6h[8:1]/4h[8:1],,12,2h[8:1]/8h[8:1],,64,6h[8:1]/3h[8:1],,17,1h[8:1]/6h[8:1],,45,36,72,1b/8b,,,
{16}1b,8,1,8,1,8,1,8,1,8,1,8,1,8,1,8,1,8,1,8,1,8,1,8,1,8,1,8,1,8,1,8,1,8,1,8,1,8,1,8,1,8,1,8,{1}1bs5[8:5],
{8}8b,,2,3,,4,7,,5,6,,3,4,4,5^2[8:10],,,6h[8:9],,,,,,,,,,,
{8}1,,7,6,,5,2,,4,3,,5,2,6,4^7[8:6],,,3h[8:5],,,,,,,
{4}2,1,{8}8^6[4:1],,,5^3[4:1],,,2<4[2:1],,,,3,2,1^3[4:1],,,4^6[4:1],,,7^1[4:1],,,2^4[4:1],,,{4}5<4[1:1],,,,,,
{8}5,3,8,6,12,12,4,6,1,3,{16}5,4,5,4,{4}5h[4:1],
{8}1b,,1,5,1,6,74,,7,4,7,3,6,4,1,2,8,1,8,2,1,2,8,1,8w4[8:1],2,,,
{8}26,,3,4,2,5,16,,8,1,7,1,25,25,{16}3,4,3,,5,,3,4,3,,6,,3,4,3,,7,,1,2,3,4,{8}5/8b,,,
{8}1h[4:1]/6^3[8:1],,,,8-2[8:1],2-4[8:1],4-6[8:1],{2}6V82[4:1],{8},
{8}5,,6h[4:1]/1^4[8:1],,,,7-5[8:1],5-3[8:1],3-1[8:1],{2}1V75[4:1],{8},
{16}3,2,1,8,{2}7>3[4:3]/4,4,5<1[4:3],4,{4}4^1[4:1],7,6^1[4:1],4,5>1[4:1],8,{8}6,6,5,5,
{8}43,42,,42,41,,56,57,,57,58,,,,
{8}12,13,,83,84,,87,86,,16,15,,4,3,
{4}2>8[4:3],,1,8>5[8:5],,6,{8}7-5[6:1],,,1-3[6:1],,,8-4[6:1],,,{8}3,2,1,7,6,
{8}54,53,,46,47,,53,52,,47,48,,,,
{8}12,13,,87,86,,13,14,,86,{12}85,4,3,2,1,8,7,6,5,
{8}4h[4:1]/2h[4:1],,,5h[4:1]/7h[4:1],,,2^5[4:1]/6h[4:1],,,,{16}8,1,2,3,{12}4,5,6,{8}7,8,
{8}1h[4:1]/3h[4:1],,,8h[4:1]/6h[4:1],,,3h[4:2]/7h[4:2],,,,,,1h[4:1]/5h[8:7],,,1h[8:15],,,,,5,,,,6,,6,,7,,7,,
{8}82,82,,17,17,,83,83,,16,1w5[8:2]/6,,,,,,
{8}2-8[8:1]/6,,2-4[8:1]/6,,25,6,7,1,8-6[8:1],,8-2[8:1],,8-4[6:1],,8,,35,,{16}2,1,{8}2,8,7,3,2,
{8}6,5,7,4,8,1,7,2,6-4[8:1],,61,,2,2,8,8,3-7[8:1],,36,,5-1[8:1],,51,,
{16}2,,7,8,7,,3,,7,8,7,,4,,7,8,7,,3,,5,4,5,4,{8}5,4v1[6:1]/5v8[6:1],45,45,,,2b/7b,,
{8}8,1,8,1,
{8}7-1[8:1]/3,,7-5[8:1]/3,,74,3,2,8,1-5[8:1],,1,6,7,4,3,2q4[3:1],,5,,7,8b,,,,
{8}81,82,83,84,
45,46,47,48,
,2,1,,
3h[8:3],,,4>5[4:6],{2},,,,
{12}7,6,5,3,4,2,5,4,6,2,1,2,8,7,6,2,3,4,6,5,4,1,8,1,
{16}7,6,5,4,1,2,3,4,8,7,6,5,3,4,3,4,1,2,3,4,1,8,7,6,2,3,4,5,8,7,6,5,
{16}4,5,4,5,3,6,3,6,2,3,4,5,6,7,8,1,{1}6h[2:1]/2h[2:1],
{8}34,25,,56,47,,12,38,,78,61,,5,4,3,2,
{8}17,25,,28,74,,35,61,,46,83,2,1,8,7,6,
{8}65,64,3,21,28,7,64,63,2,17,16,5,45,63,27,81,
{16}8,1,8,1,8,1,8,1,8,1,8,1,8,1,8,1,8,1,8,1,8,1,8,1,{2}8b,
{2}4h[2:1],6h[2:1],2h[2:1],8b,,
{4},4h[2:1]/5h[2:1],,,3q7[8:1]/6p2[8:1],3b/6b,
{8}1,8,2,1,3,4,25,25,8,7,16,16,4-8[8:1]/5-1[8:1],,45,,5,4,6,5,{16}7,8,7,8,6,,,,3,4,3,4,2,,,,
{16}4,,6,5,6,,3,,6,5,6,,2,,6,5,6,,1,,6,5,6,,{8}78,78,78,78,1-6[8:1]/8-3[8:1],,1b/8b,,
{8}4,5,2,7,1-3[8:1],,1-7[8:1],,1-5[8:1],,1,,{16}6,4,{8}6,3,2,5,6,7,7p5[3:1]/3,,4,,2,1b,,,,
{8}18,28,37,47,54,64,73,8/3h[2:1],,8,7,6,5,4,3,2,81,71,62,52,45,35,26,1/6h[2:1],,1,2,3,4,5,6,7,
{8}15,26,37,48,51,62,73,84,,5,4,,7h[8:3],,,8<1[4:6],{2},,,,,,
{8}4,5,3,5,2,2,6,5,7,4,8,8,3,5,2,6,1,1,6,4,7,2,8,8,
{8}27,1s5[8:1]/8,,1b/8b,,3,7,1/8-5[8:1]*q5[8:1],,8b,,6,2,1-5[8:1]/8-5[8:1],,1b/8b,,
3,7,1-5[8:1]/8-4[8:1],,1b/8b,,36,,,3bq6[2:1]/6b,,,,,,,{12}45,45,45,
