&title=deadeye
&artist=Acotto
&first=0.01
&des=KazeKiyo
&lv_5=14
&des_5=KazeKiyo
&inote_5=
(167){4},{8},,,,,,3qq4[8:5],
,,,,,,5<8[8:3],
,,,,{2}1s5[8:3],
{16},,E1,E2,E3,E4,E5,E6,E7,E8,{8}E1,{16}D4,D3,D2,D1,
D8,D7,{8}D6,{16}E8,E1,{8}E2,{16}E4,E5,{8}E6,{4}Ch[4:1],
{8}3qq4[8:5],,,,,,,5<8[8:3],
,,,,{2}1s5[8:3],
{8},Ch[8:5],{16},,,,,,,,,,1/7,2/6,
{1}3p8[2:1]/5q8[2:1],
{32}1,2,3,4,5,6,7,8,1,2,3,4,5,6,7,8,1,2,3,4,5,6,7,8,1,2,3,4,5,6,7,8,
{4}5b/1b,{16}2/6,2h[16:3],,6,6,{32}3x,4,{8}3xh[16:1],{32}6x,5,{16}6x,4,4,
7,7,,4x,4x,{32}6,5x,{16}6,4,,5,5,4b/6b,,1,{8}8b/2b,
3/7,5/1,{16}2,2,8,8,{32}1,7,{16}1xh[16:1],,6x,1x,1x,{32}7,8x,{16}7,
1,1,,2,{8}2,{16}3,3,,4,{32}4,Ch[32:3],,,,,,,,,,,{16}5,
4,6,5h[8:1],,7,1,8,3,4,3,5h[8:1],,,2,8,
4,5,3,4h[8:1],,2,8,1,6,5,,5,6,4,6,3,
7x,7,8x,8,1x,1,2x,2,3x,3,4x,4,5x,5,6x,6,
{1}7pp2<7[8:5],
{4}6b/2b,{16}3,4,3,6,5,6,3,4,2,6,5,7,
1,8,1,8,2,7,3,7,4,{32}6x,5,{16}4,2,8,{32}3x,4,{16}5,7,
7h[8:1],3,3,7,2,2,6,1,1,5,2,4,3,7,5,6,
2,2,8,8h[8:1],,1,2,3,8,6,7,2,4,3,5,1,
7,8,6,2,1,3,8,4h[8:1],,7,6,5,,3,4,1,
6,5,{8}7h[8:1],{24}1,8,2,1,{48},,,,{16}4,5,3,4,1,8,2,1,
3,3,7,7,4,4,8,8,3,4,2,2,7,8,6,6z2[16:7],
,,,,,,,,,,,,,,{8}Ch[8:1],
{16},,,,1>5[16:3],,,E7/A6/D6/E6/D7/B6,,,,,,,{8}3/8h[16:3],
{16},2h[8:1],,,,8<4[16:3],,E3/B3/E4/D4/A3/D3,,,,,,,{8}1h[8:1]/3h[8:1],
,1V35[16:3],{16},E7/D7/A6/B6/E6/D6,,,,,{8}7s3-6[8:3],,4h[8:3],
{16},,,,,,,4-2v8[16:3],,,{8}5h[4:1],,,{4}1b/7b,
{16}8xh[16:1],{32}E4,E5,{16}E6,7xh[16:1],{32}E3,E4,{16}E5,6xh[16:1],{32}E2,E3,{16}E4,5xh[16:1],{32}E1,E2,{16}E3,
{8}7V15[16:3],7s3[4:1],{4}7xh[16:1],,5x-1[8:1],
{16},,,,1xh[16:1],{32}E6,E5,{16}E4,2xh[16:1],{32}E7,E6,{16}E5,3xh[16:1],{32}E8,E7,{16}E6,4xh[16:1],{32}E1,E8,{16}E7,
{8}3qq4[8:3],,,4<8[4:1],,,,,{4}1b/5b,
{16}1xh[16:1],{32}D6,D5,{16}D4,2xh[16:1],{32}D7,D6,{16}D5,3xh[16:1],{32}D8,D7,{16}D6,4xh[16:1],{32}D1,D8,{16}D7,
{8}5-2[8:1],5-8[8:1],{4}5xh[16:1],{16}E4,E3,E2,E1,E5,E6,E7,E8,
{1}1x-6-2-5[2:1],
{4}8xz4[4:1],,,Cfh[4:1],
{16},,,,,,,,1bxh[8:1]/3bxh[8:1],,,2bxh[8:1]/4bxh[8:1],,,{8}3bxv6[8:1]/5bxv2[8:1],
{16},,,,,,,,1bxh[8:1]/7bxh[8:1],,,8bxh[8:1]/6bxh[8:1],,,{8}5bxh[8:1]/7bxh[8:1],
,4bh[8:1]/6bV82V86[16:11],{16},4h[8:1],,,4h[8:1],,,5h[8:1],,,{8}5h[8:1],
{16},5h[8:1],,,E4,E3,E2,E1,E8,E7,E6,E5,{4}Cfh[4:1],
{16},,,,,,,,2bh[8:1]/4bh[8:1],,,3bh[8:1]/5bh[8:1],,,{8}4bh[8:1]/6bh[8:1],
,,{4}C,,,{1}5h[4:7]/2qq7>2[4:11],
{4},,,,,,,,6qq3<6b[4:11],
,,1h[1:1],
{8},,,,,,,,,,,,,,,,1V35[4:1],
,,,,6xh[8:3]/8h[8:5],{32},,,,,,,,,,,,,,,,E2,
E3,E4,E5,E6,E7,E8,E1,{16}1xh[8:1]/Cf,,,6xh[8:1]/E3f,,,{8}4h[4:1]/E1f/D1/A8/A1,
,,,4qq1[8:3]/5pp8[8:3],{16},,,,,,,,,,,,,,,,2h[8:1]/Cf,
,,5h[8:1]/E3f,,,{8}1h[4:1]/E5f/A5/D5/A4,
{24},,,E1,,E2,,E3,,E4,,E5,,E6,,E7,,E8,,E1,,{8}C,
{16}4xh[16:1]/7xpp2<7b[16:41],,,4h[16:1],,,{8}4h[16:1],{16},4h[16:1],,,5h[16:1],,,5h[16:1],
,,{8}5h[16:1],{16},5h[16:1],,,4h[16:1],,,4h[16:1],,,{8}4h[16:1],
{16},4h[16:1],,,3h[16:1],,,3h[16:1],,,{8}3h[16:1],{16},3h[16:1],,,8xh[16:1]/3pp6[8:13],
,,8h[16:1],,,{8}8h[16:1],{16},8h[16:1],,,1h[16:1],,,1h[16:1],
,,{8}1h[16:1],{16},1h[16:1],,,8h[16:1],,,8h[16:1],,,{8}8h[16:1],
{16}8,1,8,1,8,1,8,1,8,1,8,1,8,1,8,1,
{32}8,7,6,5,4,3,2,1,8,7,6,5,4,3,2,1,8,7,6,5,4,3,2,1,8,7,6,5,4,3,2,1,
{4}8b/4b,{16}B6,B3,B5,B4,A7,A8,A1,A2,,E4,E5,E6,
D8,D1,D2,D5,D4,D3,D2,D1,D8,D7,D6,D5,E1,E2,E3,E4,
{8}1bx/E5f/D5/A4/A5,2bx/8bx,{16}A3,A4,A5,A6,B7,B8,B1,B2,,D4,D5,D6,
{32}E1,E8,{16}E7,D4,D3,D2,D1,{32}E7,E6,{16}E5,D4,D3,D2,D1,D8,D7,D6,D5,
{4}Ch[2:7],4,3,2,
{1}1V35[2:1],
{4}5x,4,3,2,
1,1s5[4:1],{32},,,,,,,,,,,,,,,,3,
4,{16}3,{32},,5,4,{8}5,{32}3,4,{16}3,{32},,5,4,{8}5,{32},,,,,,,,6,
5,{16}6,{32},,4,5,{8}4,{32}6,5,{16}6V48[16:3],,,,,,,,,1,
1,1,1,1,1,1,1,1,1,1,1,1q4[4:3],1p6[16:11],1,1,
{1}1,
{16}2b>5[8:1],,,1,2,5x,6,7,{8}8-3[8:1],{16}3,3,{8}8-4[8:1],{16}5,5,
8<5[8:1],,,3,8,5x,4,3,{8}2<7[8:1],{16}8,8,{8}2>5[8:1],{16}4,4,
2b,,,7x,6x,8,1,3,2,5,4,6,3,8,1,7,
2b,4,1,8,6,7,4,5,2,7,1,8,3,5,2,4,
1b>4[8:1],,,8,1,4x,5,6,{8}7-2[8:1],{16}3,3,{8}7-3[8:1],{16}4,4,
7<4[8:1],,,2,7,4x,3,2,{8}1<6[8:1],{16}7,7,{8}1>4[8:1],{16}3,3,
1b,,,6x,5x,7,1,3,2,5,4,6,{4}1h[8:1],
{16}8,8,8,8,,8z4[16:3],{8}8,{32},,,,,,,,,,,,,,,,1,
8,{16}1,7,2,7,4,5,3,{8}7<4[8:1],{16}5,5,{8}7,{16}2x,3x,
1,8,6,7,4,5,3,6,{8}2>5[8:1],{16}4,4,{8}2,{16}7x,6x,
8,1,3,2,5,4,6,3,8,2,6,4,7,1,5,5,
2,4,1,8,6,7,4,5,3,6,1,8,2,7,3,6,
{2}4b-1[8:1]/5b-8[8:1],{16}2bh[8:1]/Cf,,,6bh[8:1]/B2f,,,{8}4bh[8:5]/E1f/A8/D1/A1,
,,,,{2}5-8[8:1],
{16}1,7,1,7,1,7,1,7,2,6,2,6,2,6,2,6,
{32}2,3,4,5,6,7,8,1,2,3,4,5,6,7,8,1,{2}2h[8:3]/6h[8:3],
{1}2bx>2q2b[2:3]/6bx<6q6b[2:3],
,2b/7bpp2<7b[2:3],
{8},,,,,,D5,C/B5/B4/E5,
1bx/8bx,2bx/7bx,{16}5/3,3/5,,4/6,{8}4/6,{32}7,8x,{16}7,{32},,1,8x,{16}1,7,
7,4,4,{32}6,5x,{8}6,{32}4,5x,{16}4,7,7,1,1,8,8,{8}7/2,
{16},3,5,4,6,5,7,1h[8:1],,8,7,6h[8:1],,2,3,4h[16:3],
,5,6,7,8/1,2,3,4h[8:1],,6,5,7h[8:1],,2,1,3h[16:3],
,,{8}Ch[16:0],{16},E1,E2,E3,E4,E5,E6,E7,,D8,D1,D2,
,E4,E5,E6,,D7,D6,D5,D4,D3,D2,D1,D8,D7,D6,D5f/A5/A4/E5,
E
