&title=HARD NOTES RUSH!
&artist=Alice
&first=0.02
&des=Jason Willing
&lv_5=13
&lv_6=13+
&inote_5=(178){1},
{1},
{12}3/6,,,6,5,6,5,,,3,4,3,
{12}4,,,6,6,5,3,3,4,5,5,6,
{12}4,,,2,2,8,1,,,7,7,1,
{1}8-4[8:1],
{1}3<6[4:8],
{1}7>2[4:1],
{1}2<7[2:1],
{1}5-1[2:1],
{8}8h[2:1],,1,,1,,7,7,
{8},5,5,,3,2,1,1,
{8}2h[2:1],,1,,6,,3,3,
{8},4,4,,6,6,8,8,
{4}1-5[4:3],8,8,8,
{4}4,4,4,4,
{4}8-4[2:1],1,1,1,
{4}2,2,2,2,
{4}1,2,3,4,
{4}5,6,7,8,
{16}8,,8,,2,,2,,3,4,5,6,7,8,1,2,
{4}1b,2b,8-4[8:1],5b,
{16}1>4[8:1],,,,7-4[8:1],,,,2,,,,8<5[8:1],,8,,
{8},4,3,3,2,2,1,1,
{8}5-8[8:1],,2>5[8:1],,1,,8-3[8:1],8,
{8},7,6,6,5,5,4,4,
{8}
&inote_6=(178){1},
{1},
{12}1/8,,,2-5[8:1],,7,7,,,7-4[8:1],,2,
{12}2,,,2/5,,3,3/4,,6,6/5,,2,
{12}4/2-6[8:1],,,6,,7,7-3[8:1],,,3,,1,
{1}1-5[16:3],
{1}7<8[4:14]/4b-1[4:1],
{1}2h[2:1],
{1}3h[2:1],
{1}4h[2:1],
{8}7h[2:1],,5,,4,,3,3h[8:3],
{8},4,4,,2,4,3,5,
{8}4h[2:1],,5,,6,,7,7h[8:3],
{8},8,8,,6,1,5,2,
{4}4h[4:7],3,3,3,
{4}5,5,5,5,
{4}5h[4:7],6,6,6,
{4}4,4,4,4,
{4}4-1[4:5],5,5,5,
{4}4,4,3,3,
{16}2,,2,,1,,1,,3,4,5,6,7,8,1,2,
{4}1-6[8:1],2,1-4[8:1],8b,
{8}7/5,,2/4,,8-5[8:1],5-8[8:1],,,
{16}3<6[8:1],,,,8,,,,7h[16:3],,,8,7,,1,,
{8}6-1[8:1],,2-5[8:1],,8,,8<5[8:1],4>1[8:1],
{16},,,,4h[4:1],,,,2h[16:3],,,1,2,,8,,
{8}7/4,,2/5,,1-4[8:1],4-1[8:1],,,
{16}6>3[8:1],,,,1,,,,2h[16:3],,,1,2,,8,,
{8}3-8[8:1],,7-4[8:1],,1,,1>4[8:1],5<8[8:1],
{16},,,,5h[4:1],,,,1h[8:1],,2h[8:1],,3h[8:1],,4h[8:1],,
{16}5b,,,,6<1[8:1],5,6,5,6>3[8:1],,,,6,,,,
{4}8<5[8:1],3>8[8:1],6>3[8:1],1,
{16}2/7,,,,2<7[8:1],4,2,4,2,,,,5>2[8:1]*<8[8:1],,,,
{4}5,1-6[8:1],5-2[8:1],1,
{16}3/8,,,,7<4[8:1],8,7,8,7,,,,2,1,2,1,
{4}2>5[8:1],7>2[8:1],4<7[8:1],1,
{16}8/3,,,,7,6,5,4,3,4,5,6,7,8,1,2,
{4}1-6[8:1],2-5[8:1],7-3[8:1],8,
{8}1>4[8:1]/4<7[8:1],,1/4,,8-3[8:1],,5,5h[4:1],
{8},6,7-4[8:1]/4,,3-8[8:1],,6,,
{8}7<4[8:1]*>2[8:1],,7-3[8:1],,7,,1,1h[4:1],
{8},8,7/2-5[8:1],,6-1[8:1],,4,,
{8}8<5[8:1]/5>2[8:1],,8/5,,1-6[8:1],,4,4h[4:1],
{8},3,2-5[8:1]/5,,6-1[8:1],,3,,
{8}2>5[8:1]*<7[8:1],,2-6[8:1],,2,,8,8h[4:1],
{8},1,2/7-4[8:1],,3-8[8:1],,5,,
{8}1>4[8:1]/4<7[8:1],,1/4,,8>3[8:1],8,5,5h[4:1],
{8},6,7-4[8:1]/4,7,3-8[8:1],3,6,6,
{8}7<4[8:1]*>2[8:1],,7-3[8:1],,7,,1,1h[4:1],
{8},8,7/2-5[8:1],2,6-1[8:1],6,4,4,
{8}8<5[8:1]/5>2[8:1],,8/5,,1<6[8:1],1,4,4h[4:1],
{8},3,2-5[8:1]/5,2,6-1[8:1],6,3,3,
{8}2>5[8:1]*<7[8:1],,2-6[8:1],,2,,8,8h[4:1],
{8},1,2/7-4[8:1],7,3-8[8:1],3,5,5,
{1}6<5[4:14]/1b-4[4:1],
{1}4h[2:1],
{1}5-8[4:1],
{1}8h[2:1],
{8}6h[2:1],,5,,4,,3,3h[8:3],
{8},2,2,,1,3,8,4,
{8}7h[2:1],,8,,1,1h[4:1],,3<1[8:3],
{2},5-8[8:1]*>2[8:1],
{16}1b,,6,5,6h[8:1],,3,4,3-8[8:1],,,,3/5,,,,
{16}1>4[8:1]/7,,,,6,,7,,8-5[8:1],,5-8[8:1],,8,,,,
{16}2,,3,4,3h[8:1],,6,5,6-1[8:1],,,,6/4,,,,
{16}2/8,,3,4,3,,6,5,6,,3,4,2,,2,,
{16}1/6,,7,8,7h[8:1],,2,1,2>5[8:1],,,,8/2,,,,
{16}8,7,6,5,3,2,1,8,5<7[8:1]*>2[8:1],,,,5,,,,
{16}1/8,,3,4,2h[8:1],,6,5,7>2[8:1],,,,3/7,,,,
{16}4,3,2,1,4,5,6,7,8,7,6,5,4-1[8:1]/1-4[8:1],,,,
{16},,,,8b,8b,8b,8b,8b,,,,7,5,6,,
{16}2,4,3,,7,6,5,4,2,3,4,5,7,,7-4[8:1],,
{16},,1,,1,,,,2/4,,3,4,2,,8,1,
{16}7,6,5,4,7,6,5,4,8,7,6,5,3,2,1,8,
{16}5b<8[8:1],,,,1,2,3,4,5-2[8:1],,,,8/5,,,,
{16}7,6,5,4,2,1,8,7,4-7[8:1],,,,1<6[8:1]*>4[8:1],,,,
{16}1,,,,7/3,,,,1,2,3,4,5,4,3,2,
{4}1<6[8:1],2>5[8:1],8-3[8:1],8b,
{8}1>4[8:1]/4<7[8:1],,4-1[8:1],,1-4[8:1],,5<8[8:1],5>2[8:1],
{8},,1-5[8:1],,5-1[8:1],3,1,3,
{8}5>2[8:1],,8<5[8:1],,1h[8:3],,4,4-7[8:1],
{8},1,2>5[8:1],,1,8,7,7,
{8}8<5[8:1]/5>2[8:1],,5-8[8:1],,8-5[8:1],,4>1[8:1],4<7[8:1],
{8},,8-4[8:1],,4-8[8:1],6,8,6,
{8}4<7[8:1],,1>4[8:1],,8h[8:3],,5,5-2[8:1],
{8},8,7<4[8:1],,8,1,2,2,
{8}1>4[8:1]/4<7[8:1],,4-1[8:1],,1>4[8:1],,5-8[8:1],5-2[8:1],
{8},,1<6[8:1],,5-1[8:1],3,1,3,
{8}5>2[8:1],,8<5[8:1],,1h[8:3],,4,4-7[8:1],
{8},1,2>5[8:1],,5,6,7,7,
{8}8<5[8:1]/5>2[8:1],,5-8[8:1],,8<5[8:1],,4-1[8:1],4-7[8:1],
{8},,8>3[8:1],,4-8[8:1],6,8,6,
{8}4<7[8:1],,1>4[8:1],,8h[8:3],,5,5-2[8:1],
{8},8,7<4[4:1],,2,1-4[8:9],8-5[1:1],7,
{1},
{1},
E
