&title=D/N/A
&artist=Azari,重音テト,v flower
&first=0.051
&des=白垣
&lv_6=14.9
&des_6=白垣
&inote_6=
(150){4},,,,{2}B7/B6/B5/B4/B3/B2/B1/B8/Ch[4:1],
4h[8:3]/8h[8:3],
{8}4/8,1/4qq4[8:1],7/4pp4[8:1],2/4,{2}6/A4,
{8}5/1,8/5pp5[8:1],2/5qq5[8:1],7/5,{2}3/A5,
{8}2-6[0.8##0.1],6-1[0.7##0.1],1-5[0.6##0.1],5-2[0.5##0.1],{2}2b,
{8}7-3[0.8##0.1],3-8[0.7##0.1],8-4[0.6##0.1],4-7[0.5##0.1],{2}7b,
{8}1/8,7,8/1-4[8:1],7,{16}1/8,,,8,{8}8/1-5[8:1],1/7,
1/8,7,8/1-6[8:1],7,{16}1/8,,,8,{8}8/1-5[8:1],1/7,
1/8,7,8/1-4[8:1],7,{16}1/8,,,8,{8}1-4[8:1]/8-5[8:1],2/7,
{4}1v6[8:1]/8v3[8:1],1>4[8:1]/8<5[8:1],{8}1/8,A5/E5/A4/D5,1/7-3[8:1],6/2,
7/1-5[8:1],8,1/7-3[8:1],8,7/1-5[8:1],8,1/7-3[8:1],8,
7/1-5[8:1],8,1/7-3[8:1],8,{4}7/2-6[8:1],{8}2/8-4[8:1],1,
8/2-6[8:1],1,2/8-4[8:1],1,8/2,{16}3,2,1>4[8:1]*-4[8:1],8,{8}7,
{4}1<6[8:1]*-6[8:1],1w5[8:1],{8}1,A6/D6/A5/D5/A4,B2/B3/E3/E4/B4/1-4[8:1],B8/E8/B7/E7/B6/1-6[8:1],
1-5[8:1],1v3[8:1]*v7[8:1],1>5[8:1]*<5[8:1],A1f,{4}A7f/A3f,{8}8-6[8:1],8-5[8:1],
8-4[8:1],8-3[8:1],8-2[8:1],A8f,{4}A8f,{24}1/5,2,3,4,5,6,
7/3,8,1,2,3,4,5/1,6,7,8,1,2,3/7,4,5,6,7,8,5/1,2,3,4,5,6,
7/3,8,1,2,3,4,5/1,6,7,8,1,2,{8}3/7,{24}4b,2,3,7b,5,6,1b,3,2,
8b,6,{12}7,{96},,,,,,,,{32}1/8h[16:1],B2,B3,B4,,,,,7/8h[16:1],B6,B5,B4,,,7/6h[16:1],B8,B1,B2,,,5/6h[16:1],B4,B3,B2,
5/4h[16:1],B6,B7,B8,,,,,3/4h[16:1],B2,B1,B8,,,,,3/2h[16:1],B4,B5,B6,,,1/2h[16:1],B8,B7,B6,,,1/8h[16:1],B2,B3,B4,
7/8h[16:1],B6,B5,B4,,,,,7/6h[16:1],B8,B1,B2,,,,,5/6h[16:1],B3,B2,B1,,,5/4h[16:1],B6,B7,B8,,,{8}1b/B7f/B6f/E7f,
{4}8b/B2f/B3f/E3f,Cfh[4:1],{16},,2,3,2/4,3,4x,5/3,
4x,5,6/4,5,6x,5/7,6,7,{4}8x/6x,{16}8/6,7,6x,7/5,
6x,5,4/6,5,4x,5/3,4,3,{4}2x/4x,{16}1,1,{32}2b/1,3,4,5,
8b/1,7,6,5,{16}1,1,{32}2b/1,3,4,5,{16}1,1,{32}8b/1,7,6,5,{16}1,{32}2b/1,3,4,5,{16}1,{32}8b/1,7,6,5,
2b/1,3,4,5,{16}1,1,{4}1/Cf/B6f/B5f/B4f,{32}8b/2,3,{16}4,{32}8/6b,1,{16}2,{32}4b/6,7,{16}8,{32}4/2b,5,{16}6,
{2}1h[4:5]/8-2-7-3-6-4[0.8##1.2],8b,
,8h[4:5]/1-7-2-6-3-5[0.8##1.2],
{1}1b,
{8}1/8,1/2,2/3,3/4,4/5,5/6,6/7,8/7,
{16}1b/B7f/B6f/E7f,,,8b/B2f/B3f/E3f,,,{8}1b/B7f/B6f/E7f,,,7/2,3/6,
{16}4b,5,4,5,3b,6,3,6,2b,7,2,1b/7,8,1,2b/8,7,
3b,6,3,6,4b,5,4,5,3b,6,3,2b/6,7,2,7/1b,8,
2b,7,2,7,3b,6,3,6,4b,5,4,3b/5,6,3,2b/6,7,
1b,8,1,8,2b,7,2,7,{4}Cf/E4f/E6f/E7f/E8f/B8f/B1f/E2f/E3f/B3f/B4f/B5f/E5f/B6f/B7f/B2f/E1f,Cfh[8:1],
{32}8b,7,6,5,4,3,2,1,4b,3,2,1,8,7,6,5,8b,7,6,5,4,8b,7,6,5,4,3,2,8b,7,6,5,
1b,2,3,4,5,6,7,8,3b,4,5,6,7,8,1,2,5b,6,7,8,1,2,4b,3,2,1,8,7,5b,4,3,2,
7b,8,1,2,3,4,5,6,3b,4,5,6,7,8,1,2,7b,6,5,4,3,8b,1,2,3,4,{16}5,{32}7b,6,5,4,
1b,2,3,4,5,6,7,8,5b,4,3,2,1,8,7,6,8b,7,6,5,7b,6,5,4,6b,5,4,3,{8}6bh[8:3],
{2}Ch[4:1],{8}2>5[8:1],5-2[8:1],2<7[8:1],7-2[8:1],
6-2[8:1],A2,6<6[4:1],6,{4}6b/2b,{8}E1/B8/B1,B2/B3/E3,
B5/B4/E5/7<4[8:1],4-7[8:1],7>2[8:1],2-7[8:1],3-7[8:1],A7,3>3[4:1],3,
3b/7b,A7,E1/B8/B1,3/6,B5/B4/E5,2/7,{4}7/2-6[8:1],
2/1-5[8:1],1/8-4[8:1],8/7-3[8:1],7/6-2[8:1],
{8}6/5-1[8:1],5,5/4-8[8:1],4,{4}4/8,{8}4/8-4[8:1],8,
{4}8/7-3[8:1],7/6-2[8:1],6/5-1[8:1],5/4-8[8:1],
{8}4/3-7[8:1],3,3/2-6[8:1],2,{4}2/6,1b-7-5-3-7-5-1-5-7-3-5-7-1-7-5-3-7-5-1[2:3],
,,,1b-7-5-3-7-5-1b[2:1],
{8},,,,,,B2/B3/E3,B7/E7/B6,
{16}1b/8b,7/2,{8}6/3,8b/1b,6/3,{16}8b/1b,7/2,6/3,5/4,5b/4b,6/3,7/2,8/1,
{8}8b/1b,6/3,1b>4[8:1]/8b<5[8:1],6/3,{4}8b/1b,{8}8/7-3[8:1],8/1,
{4}7b/1b-5[8:1],1b/6b-2[8:1],{16}6b/1b-5[8:1],,,1b/4b-8[8:1],{8}A1,{16}4b,A4,
{4}2b-6[8:1],{16}2b/8b-4[8:1],8,8,8,8b/3b-7[8:1],,,3b,{8}A3,6b,
{4}6b-2[8:1],6b/1b-5[8:1],{16}1b/7b-3[8:1],,,7b,{8}A7,{32}4,4,4,4,
{16}4b-8[32:3],{32},,,,4,4,{16}4b/6b-2[8:1],{32},,,,6,6,{16}6b/1b,1b,1b,1b,{4}Ch[8:1],
{32}1b,2,3,4,5,6,7,8,5b/1,4,3,2,1,8/2,7/3,6/4,5b,6,7,8,1,2,7b/3,8/4,1/5,2/6,3,4,2b/5b,3/6,4/7,5/8,
6b/1,7,8,1,2,3,4,5,6/3b,4,5,6,7,8,1,2,7b/3,4/8,5b/1,6/2,7/3,8/4,5b,6,7,8,1,2,3b/7,4,5,6,
7b/3,8,1,2,3,4,5,6,3b/7,2,1,8,7,6,5,4,7b/3,4/8,5/1,6/2,7/3,8/4,1b,2,3,4,5,6,3b/7,2,1,8,
3b/7,4,5,6,7/C,8,1,2,3b/7,4,5,6,7/C,8,1,2,3b,4,5,6,3b/7,2,1,8,{4}7b/3b,
{8}7/2-6[8:1],2,2/1-5[8:1],1,1/8-4[8:1],8,8/7-3[8:1],7,
7/8-4[8:1],8,8/1-5[8:1],1,{4}1/2,{8}6/3-7[8:1],3,
3/4-8[8:1],4,4/5-1[8:1],5,5/6-2[8:1],6,6/3,3,
4/5,3/6,2/7,1/8,{16}1b,8b,1b,8b,1b,8b,{32}1b,2,3,4,
1,2,3,4,{8}5b<8[32:3],{32},,,,1,2,3,4,1,2,3,4,,,,,,,,,4b,3,2,1,
4,3,2,1,{8}8<5[32:3],{32},,,,4,3,2,1,4,3,2,1,,,,,,,,,8b,7,6,5,
8,7,6,5,{8}4>1[32:3],{32},,,,8,7,6,5,8,7,6,5,,,,,,,,,5b,6,7,8,
5,6,7,8,{8}1>4[32:3],{32},,,,5,6,7,8,5,6,7,8,,,,,,,,,{8}1-5[8:1],
3/5V71[8:1],1/7,6,5-2[8:1],6/2-7[8:1],5/1,3,4-8[8:1],
2/8-4[8:1],4/6,2,5-1[8:1],3/1V75[8:1],5/7,8,1-4[8:1],
8/4-7[8:1],1/5,3,2-6[8:1],4/6-2[8:1],2/8,4,5V71[8:1],
7/1V35[8:1],5/3,4,A5f/E5f/D5f/A4f,{16}4b/B7f/B6f/E7f,,,5b/B2f/B3f/E3f,,,{8}4b/B7f/B6f/E7f,
{48}5b,6,7,8,1,2,{16}3,4,5,4,5,3,6,3,6,2,{24}7,1,8,1,8,1,
8,1,8,1,{48},{16}7,2,7,2,6,3,6,3,5,4,5,4,5,
{48}4b,3,2,1,8,7,{16}6,4,5,4,5,3,6,3,6,2,{24}7,1,8,1,8,1,
8,1,8,1,{48},{16}7,3,7,3,6,4,6,4,5,5,5,5,5h[16:3],
{48}6b,7,8,1,2,3,{16}4,7,2b/7,2,2/6,2,6b/2,6,6,3b/6,3,3,7b/3,7,
2b/7,2,2/8,2,8b/2,8,8,8,1b/8,1,1,7b/1,7,7,2b/7,2,
{48}8b,7,6,5,4,3,2,1,8,7,,,{16}2,2,7,7,3,3,6,6,4/B1/B8/E1,4,5/E1/B8/B1,5,
3/B6/B7/E7,3,6/B2/B3/E3,6,2/B5/B6/E6,2,7/B3/E4/B4,7,1/B7/B6/E7,1,8/B2/B3/E3,8,1b-5b[8:1]/8b-4b[8:1],8b/1b,8b/1b,8b/1b,
E
