&title=[狂]TiamaT:F minor
&artist=Team Grimoire
&first=0.2
&des=sreCP
&wholebpm=215
&des_7=sreCP
&lv_7=15+
&inote_7=(215)
{4}6h[8:1],6h[8:1]/5,3h[8:1],3h[8:1]/4,
{8}6,6,5/6,4/6,4/5,3/5,3/4,3/4,
{8}3,34,3,4,6,65,6,5,
{4}2h[8:1],3/2h[8:1],3b/4b,,
{24}1,8x,7xh[8:1],,,,8,7x,6xh[8:1],,,,7,6x,5xh[8:1],,,,6,5x,4xh[8:1],,,,
{16}5,4,5,,3,2,3,,6,5,6,,4,3,2,,
{8}2h[24:1],2h[24:1],3h[24:1],3h[24:1],4h[24:1],4h[24:1],5h[24:1],5h[24:1],
{12}4,4,4,6,6,6,3,3,3,5,5b,,
{8}2,34,5,34,2,45,6,45,
{8}3,56,7,56,3,45,3,45,
{8}1b,2b,3b,4b,
{24}2/5,16,7h[8:1]/8h[8:1],,,,
{32}16,25,3bh[16:1]/4bh[16:1],,,,,,
{8}3x/4xh[8:1],,4,4,5,5,4,,
{8}7b,5,6/C,5,7b,4,5/C,4,
{24}6,5,4,
{8},3,4/C,5,,3/6,,
{24}7,8x,1xh[8:1],,,,4,3x,2xh[8:1],,,,1,2x,3xh[8:1],,,,6,5x,4xh[8:1],,,,
{2}5h[4:1],8h[4:1],
{32}1b>1b[2:1],2b/8b,3b/7b,4b/6b,5b,,,,,,,,,,,,,,,,,,,,,,,,,,,,
{32}1b/8b,2b/7b,3b/6b,4b/5b,,,,,
{8}3,4,5/B7,6,5/E3,4,
{8}3/E8,3,4/B2,3,6/B3,6,5/C,6,
{8}2h[8:1]/E8,3h[8:1],4h[8:1],5h[8:1],8h[8:1]/E2,7h[8:1],6h[8:1],5h[8:1],
{8}3h[8:1]/E1,4h[8:1],5h[8:1],6h[8:1],1,1,1/8,C,
{16}2/4b,,3,3,3,3,3,,5b/7,,6,6,6,6,6,,
1b/4,,3,3,3,3,3,,5/8b,,6,6,6,6,6,,
{8}1/2,1/2,
{16}38,3/8,3x/8x,3x/8x,47,4x/7x,4x/7x,4x/7x,
{4}5v8[8:1]/6,1>2-4b[8:1]/5b,1b/7>2[8:1],3w7b[8:1]/7b,3b/5<4[2:3],
{32}5bx,E6,B6,B7,E8,,,,
{4},,,,,,
{64}1x-5[8:1],,,,1b,B1,,,1b,C,,,1b,B5,,,
{8}1bx,,34,2,34,5,34,2,
{8}34,5,34,2,1-4[8:1]/8-5[8:1],,,,
{8}2b/7b,,56,7,56,4,56,7,
{8}56,4,56,7,1-5[8:1]/8-4[8:1],,,,
{8}2b/7b,,3/4,12,3/4,56,3/4,12,
{8}3/4,56,3/4,12,1-5[8:1]/8>3[8:1],,,,
{8}2b/7b,,5/6,78,5/6,34,5/6,78,
{8}5/6,34,5/6,4/7,3>1[8:1]/8-4[8:1],,,,
{8}2b/5,3,4/7b,6,2b/5,3,4/5,6,
{8}7-4[16:1]/8,7b,3-8[16:1],3b,7w3[16:1],7b,1bx,,
{8}4/7b,6,2b/5,3,4/7b,6,4/5,3,
{8}1/2-5[16:1],2b,6-1[16:1],6b,2w6[16:1],2b,8x,,
3/8,
{24}1,2,1,2,1,2,1,2,1,2-5[8:1]*-8[8:1],,,
{8},2,,1/6,
{24}8,7,8,7,8,7,8,7,8,7-1[8:1]*-4[8:1],,,
{8},7,,
{8}2-6[8:1],6-2b[8:1],2,,7-3[8:1]-7b[8:1],A3,7,,
{4}1x,1-6[8:1]*>4[8:1],1w5[8:1],1b,
{8}1h[8:1]/2,2,5h[8:1]/2,2,2/3h[8:1],2,2/8h[8:1],2,
{8}3h[8:1]/4,4,7bh[8:1]/5,5,5h[8:1]/6,6,6h[8:1]/7,7,
{8}7/8h[8:1],7,7/2h[8:1],7,6h[8:1]/7,7,7/Ch[8:1],7,
{16}5/6h[8:1],,5,,4/5h[8:1],,4,,4/5,3/6,2/7,,2b/7b,,,,
{8}1h[16:1]/2,8h[16:1]/2,1h[8:1]/2,2,2/3h[8:1],2,1h[8:1]/2,2,
{8}7/8h[8:1],7,7/1h[8:1],7,6h[8:1]/7,7,7/8h[8:1],7,
{8}4/5,23,4/5,67,4-1[8:1]/5-8[8:1],,4/5,,
{8}3/4bh[8:1],2,5bh[8:1]/6,7,1-4[8:1]*v4[8:1]/8-5[8:1]*v5[8:1],,1b/8b,,
{8}1w5[8:1],2/8,1,,8w4b[8:1],1/7,8,,
{16}1/5h[8:1],8,1,,2h[8:1]/6,5,6,,3/7h[8:1],4,3,,4h[8:1]/8,7,8,,
{8}7w3[8:1],6/8,7,,2w6[8:1]*w6[8:1],1/3,2,,
{4}8<5[8:1]*>3b[8:1],8w4[8:1],8b,,
{8}6w2[8:1],5/7,6,,3w7[8:1],2/4,3,,
{16}1h[8:1]/5,4,5,,2/6h[8:1],3,2,,3h[8:1]/7,8,7,,4/8h[8:1],3,4,,
{8}7v4[8:1],7,2v5[8:1],2,6-8[8:1],6,4,4,
{24}4,8,3,7,2,6,1,5,8,4,7,3,6,2,7,3,8,4,1,5,2,6,3,7,
{2}4b>1-4[4:3]/8,C,
{2}5<8-6[4:3],C,
{2}4q1>2[4:3],B1,
{2}5pp8>1[4:3],E7,
{4}2<8p4[4:3],8h[2:1],,,
{4}7V15b[4:3],1bh[2:1],,,
{4}3-1s5[4:3],1h[2:1],,,
{4}6-8z4[4:3],8bh[2:1],,,
{4}3h[2:1],4,6h[2:1],5,
{8}3h[2:1],,4,,
{32}8b,7,6,5,8b,7,6,5,8b,7,6,5,
{40}8b,7,6,5,4b,
{4}2h[2:1],4,7h[2:1],5,
{4}2h[2:1],4,8w4[8:1]*q5[8:1]*v3[8:1],,
{4}5h[2:1],6,4h[2:1],3,
{4}5h[2:1],6,4h[2:1],3,
{4}5h[4:1],6h[4:1],7h[4:1],8h[4:1],
{2}1v8[4:1],
{32}1b,2x,3x,4x,5x,6x,7x,8x,
{8},,7-4[8:1],,7/8,1,2-6[8:1]/7-1b[8:1],,7/2-5[8:1],4,
{8}7<4[8:1],,7-3[8:1]/2-8b[8:1],,2-6[8:1],5,1/2,8,
{4}7V53[8:1],2v5[8:1]/7-1[8:1],2/7<4[8:1],7,
{4}2V46[8:1],2-8[8:1]/7v5b[8:1],2-5[8:1]/7,2b,
{8}4/6,4/6,3/5,3/5,2/4,2/4,1/3,1/3,
{8}82,82,17,17,68,68,57,57,
{16}4,5,4,5,3,6,4,5,3,6,2,7,3,6,1,8,
{32}2,,7,,2,,8,,2,,1,,2,,2,,1bh[48:1],2xh[64:1],3b,4bh[64:1],5xh[64:1],6bxh[64:1],7xh[64:1],8h[64:1],1bh[64:1],2xh[64:1],3xh[64:1],4bh[64:1],5bh[64:1],6h[64:1],7xh[63:1],8bh[32:1],
{1}1bw5[4:3],
{8},,,,4z8[8:1]/5s1[8:1],45,45,,
{32}8b,7,6,5,,2,,,8b,72,6,5,,3,,,8b,73,6,5,,2,,,8b,72,6,5,,,1,,
{32}8b,7,6,5/2-4[8:1],,,,1,8b,7,6,52,,E6,E7,E8,8b,7,6,5/1-3[8:1],,,,2,8b,7,6,51,,,,,
{32}8b,7,6,5,,3,,,8b,73,6,5,,2,,,8b,72,6,5,,3,,,8b,73,6,5,,,4,,
{32}8b/2-4[8:1],7,6,51,,,,2,8b,7,6,5,,,,,8b/1-3[8:1],7,6,52,,,,1,8b,7,6,5,,,,,
{32}8b/1h[32:3],7,6,5,,,,,8b,72,6,5,,E6/3,E7,E8,8b,7,6/2h[32:1],5,,,,E2,8b,7,6,5,,,,,
{32}8b/3h[32:2],7,6,5/1h[64:1],,,,,8b,72,6,5,,E6/4,E7,E8,8b,7,6/4h[32:1],5,,,,C,8b,7,6,5,,,,,
{32}6,,,,1b,2b,3b,4b,8,,,,1b,2b,3b,4,7,,,,1b,2b,3,4,6,,,,1b,2,3,4,
{32}5b,6,7,8,1b,2,3,4,5b,6,7,8,1b,2,3,4,5bw1[8:1],,,,,,,,8bx,,,,,,,,
{32}1b,2,3,4,,7,,,1b,27,3,4,,6,,,1b,26,3,4,,7,,,1b,27,3,4,,,8,,
{32}1b,2,3,4/7-5[8:1],,,,8,1b,2,3,47,,E4,E3,E2,1b,2,3,4/8-6[8:1],,,,7,1b,2,3,48,,,,,
{32}1b,2,3,4,,6,,,1b,26,3,4,,7,,,1b,27,3,4,,6,,,1b,26,3,4,,,5,,
{32}1b/7-5[8:1],2,3,48,,,,7,1b,2,3,4,,,,,1b/8-6[8:1],2,3,47,,,,8,1b,2,3,4,,,,,
{32}1b/8h[32:3],2,3,4,,,,,1b,27,3,4,,E4/6,E3,E2,1b,2,3/7h[32:1],4,,,,E8,1b,2,3,4,,,,,
{32}1b/6h[32:2],2,3,4/8h[64:1],,,,,1b,27,3,4,,E4/5,E3,E2,1b,2,3/5h[32:1],4,,,,C,1b,2,3,4,,,,,
{8}6,,2/3,18,6/7,5/8,36,1/5,
{16},,26,,37,,48,,4,5,3,6,2,7,1,8,
{16}2b/7b,1,,,
{64}1x,2x,3x,4x,5x,6x,7x,8x,
1x,2x,3x,4x,5x,6x,7x,8x,
1x,2x,3x,4x,5x,6x,7x,8x,
1x,2x,3x,4x,5x,6x,7x,8x,
1x,2x,3x,4x,5x,6x,7x,8x,
1x,2x,3x,4x,5x,6x,7x,8x,
1x,2x,3x,4x,5x,6x,7x,8x,
1x,2x,3x,4x,5x,6x,7x,8x,
1x,2x,3x,4x,5x,6x,7x,8x,
1x,2x,3x,4x,5x,6x,7x,8x,
{32}3h[16:3],,,,,,,,3/4,2,1,8,7,6,5,4,
{8}3b/8b,,8-6[8:1],1-5[8:1],8-3b[8:1],1>4[8:1],8<5[8:1]/B1,1,
{8}8,,1-3[8:1],8-6[8:1],1-5[8:1],8-3b[8:1],1>4[8:1],8/B1,
{8}1,,5/6,78,1/8,23,1-6[8:1]*-7<6[8:1]/8-3[8:1]*-2>3[8:1],,
{8}1/8,,4/5,23,1/2,78,2/7,,
{32}3/6,,,,8b,7,6,5,1,,,,8b,7b,6,5,2,,,,8b,7b,6b,5,3,,,,8b,7b,6b,5b,
{32}4b,3,2,1b,8,7,6,5,4b,3,2,1b,8,7,6,5,4bw8[8:1],,,,,,,,1bx,,,,,,,,
{8}1w5[8:1],1,1/7w3[8:1],7,2w6[8:1]/7,2,2/6w2b[8:1],6,
{8}3w7[8:1]/6,3,3/5w1[8:1],5,5/8w4[8:1],8x,8b,,
{8}8w4b[8:1],8,2w6[8:1]/8,2,2/7w3[8:1],7,3w7b[8:1]/7,3,
{8}3/6bw2[8:1],6,4bw8[8:1]/6,4,1bw5[8:1]/4,1x,1b,,
{24}3b,4,2,5,3b,4,2,5,3b,,1/8,,6b,5,7,4,6b,5,7,4,6b,,1/8,,
{32}3b,,4,,2,,5,,1b,,6,,8,,7,,1b,2,3,4,5,6,7,8,1b,2h[64:1],3bh[64:1],4xh[64:1],5bxh[32:1],6h[64:1],7bh[48:1],8xh[30:1],
{2}1b,4b/5b,
{1}2bV48[8:3]/7bV51[8:3],
{32}1b/8b,2b/7b,3b/6b,4b/5b<4[2:7],,,,,,,,,,,,,
{2}C,E1,C,E5,E3,C,E4,
{8}E8/E6,,B8,C,B5,,B2/B3/E3,,E1,,E8,E2,C,,B6/B3,,
{4}B8/B1,B2/B7,B3/B6,B4/B5,A1/A8,E7/E3,B8/B1/B2/B3/C,,
{4}2,3,7,6,
{8}27,,3,4,5,,48,,
{4}7,6,25,3,
{4}74,6,2x/5x,,
{8}12,,2,3,4,,56,,
{8}87,,7,6,5,,43,,
{8}C/B2/B3/B6/B7,,,,4x/5x,,,,
{4}36,1-6[8:1]/8-3[8:1],18,,
E
