&title=Schwarzschild
&artist=Tsukasa
&first=0.04
&des=Hinata
&wholebpm=188
&shortid=803
&genre=maimai
&cabinet=SD
&version=maimai FiNALE
&chartconverter=Neskol
&des_5=Hinata
&lv_5=13+
&inote_5=(188){1},
{8}3h[4:1],,5,4,3,,4/6,,
{8}5h[4:1],3,3,4,3,3,4/2,4,
{8}1h[4:1],,7,8,1,,8/1,8,
{8}2h[4:1],7,8,1,7,7,1/8,2,
{8}6h[4:1]/3,,4,5,6,,5/3,,
{8}4h[4:1],6,6,5,6,6,5/7,5,
{8}8h[4:1],,2,1,8,,1/8,1,
{8}7h[4:1],2,1,8,2,2,8/1,7,
{8}1q5[8:1],1,,7p3[8:1],7,,2>5[8:1],2,,1,8,7h[8:4],5,4,3,2,
{8}1>4[8:1],1,,8<5[8:1],8,,3>8[8:1],3,,5,6,7,8,1/2,3,4,
{8}5q1[8:1],5,,3p7[8:1],3,,6<1[8:1],6,,5,4,3h[8:4],1,8,7,6,
{8}5<8[8:1],5,,4>1[8:1],4,,7<4[8:1],7,,1,2,3,4,5/6,7,8,1bw5[4:1],,,,,,
{16},,2,3,
{8}4,6/5,7,8-6[8:1]/1-5[8:1],,1/8,,1-3[8:1]/8-4[8:1],,8/1,,5/6,7,8,1/2,3,
{8}4,6/5,7,8-6[8:1]/1-5[8:1],,1/8,,1-3[8:1]/8-4[8:1],,8/1,,5/7,6,2/4,3,,
{8}5/4,3,2,1-3[8:1]/8-4[8:1],,8/1,,8-6[8:1]/1-5[8:1],,1/8,,4/3,2,1,8/7,6,
{8}5,3/4,2,1-3[8:1]/8-4[8:1],,8/1,,8-6[8:1]/1-5[8:1],,1/8,,4/2,3,7/5,6,,
{8}5/4,3,2,1-4[8:1],,7-2[8:1]/1,,7/3-6[8:1],,3/8,,8,7,7,1,1,
{8}7,8,1,2-7[8:1],,6-3[8:1]/2,,6/1-4[8:1],,1/7,,7,5,5,8,8,
{8}4,3,2,1>4[8:1],,6<1[8:1]/1,,6/3<6[8:1],,3/8,,8,7,7,4,4,
{8}5,6,7,8<5[8:1],,3>8[8:1]/8,,3/6>3[8:1],,6/1,,1,5,5,2,2,
{8}5h[4:1],1,1,6h[4:1],2,2,7h[4:1],3,3,8h[4:1],4,4,
{16}1,2,3,4,5-1[8:1],6,7,8,
{8}5,7,2-6[8:1],8,2,7-4[8:1],3,7,1-5[8:1],8,1,8-4[8:1],4,8,1>4[8:1],5,6,7,
{8}8<5[8:1],4,3,2,1-5[8:1],8,1,7-4[8:1],3,7,2,8,1,
{8}8>3[8:1],7,6,5,4<7[8:1],3,2,1,8>3[8:1],7,6,5,4<7[8:1],3,2,1,,
{1}8b<1[4:14],,,
{2},8,8b<1[4:14],,,,,,,,
{8}6pp1[4:6],2,2,2,,2,,3,,4,,4,4,4,4,4,
{8}4qq1[4:6],8,8,8,,8,,7,,6,,5,5,5,5,,
{8}6pp2[4:6],2,2,2,,2,,3,,4,,4,4,4,4,4,
{8}4p2[4:6],8,8,8,,8,,7,,6,,6,6,6,6,,
{8}1b/7b,,,,,,
{16}2,8,2,8,3,7,3,7,3,4,6,4,6,4,3,2,1,8,7,6,5-1[8:1]/4-8[8:1],,,,,,,,
{16},,,,,,2,3,
{8}4,6/5,7,8/1-5[8:1],,1/8-4[8:1],,7-5[8:1]/8,,7/1-3[8:1],,
{16}1,,7,8,1,2,3,4,5,6,
{8}2/7,1,8,7-4[8:1]/2-5[8:1],,2/7,,1-6[8:1]/8-3[8:1],,1/8,,5/4,7-2[8:1]/3-6[8:1],6/2,7/3,,
{8}4,3,2,1/8-4[8:1],,8/1-5[8:1],,2-4[8:1]/1,,2/8-6[8:1],,
{16}8,,2,1,8,7,6,5,4,3,
{8}7/2,8,1,2-5[8:1]/7-4[8:1],,7/2,,8-3[8:1]/1-6[8:1],,8/1,,4/5,3-8[8:1]/6-1[8:1],2/7,3/6,,
{8}4,3,2,1-4[8:1],,1/8-5[8:1],,8,
{16}2,3,4,5,6,7,8,1,2/6,5,4,3,2,1,8,7,
{8}6/2,3,4,5-2[8:1],,7-4[8:1]/5,,7,
{16}2,1,8,7,6,5,4,3,2/7,6,5,4,3,2,1,8,
{8}7/4,3,2,1<6[8:1],,1>4[8:1],,1,
{16}6,7,8,1,2,3,4,5,6/2,3,4,5,6,7,8,1,
{8}2/7,6,5,4-6[8:1],,4/8-2[8:1],,8,
{16}6,5,4,3,2,1,8,7,6/2,3,4,5,6,7,8,1,
{8}2/5,6,7,8/3-7[8:1],,6,,5,
{16}8,1,2,3,8/4,7,6,5,1/4,2,3,4,1/5,8,7,6,5/1,,
{8}2,3,4/7-3[8:1],,2,,1,
{16}4,5,6,7,4/8,3,2,1,5/8,6,7,8,5/1,4,3,2,1/5,,
{8}6,7,8/3-7[8:1],,6,,5,
{16}1,2,3,4,5/1,6,7,8,1/5,2,3,4,5/1,8,7,6,
{8}5/1,3-6[8:1],7,3/8-5[8:1],,4-1[8:1]/8,,4/7-2[8:1],
{8},3/7,,4/8,3-8[8:1]/7-4[8:1],2/6,3/7,,
{8}1<6[8:1],2,1/3,4,4-8[8:1],5,4/6,5,5,
{8}1,8/2,7,6h[4:1]/3,3,2,1,
{16}8-4[8:1],7,6,5,4,,3,,3,,5,,3h[8:1],,4,,
{8}3,6h[8:1],5,6,4,3,2,1,
{8}8>3[8:1],7,8/6,5,5-1[8:1],4,5/3,4,4,
{8}8,1/7,2,3h[4:1]/6,6,7,8,
{16}1-5[8:1],2,3,4,5,,6,,6,,4,,6h[8:1],,5,,
{8}6,3h[8:1],4,3,3/7,4/8,1/5,2-6[4:1]/6,
{1},
{1},
{1},
E
