&title=砂糖陰謀論 ~Sugar Conspiracy Theory~
&artist=MAX
&first=1.147
&des_1=SetDesigner
&des_2=SetDesigner
&des_3=SetDesigner
&des_4=SetDesigner
&des_5=Happy☆Sugar
&lv_5=13+
&des_6=SetDesigner
&des_7=SetDesigner
&des=Happy☆Sugar
&inote_5=(170)
{8},,5bp1[8:1]/4b^2[8:1],5/4,,,5bp1[8:1]/4b^2[8:1],5/4,
{8},,8,8,7/2,7,6/2,6h[4:1],
{8},,5bp1[8:1]/4b^2[8:1],5/4,,,5bp1[8:1]/4b^2[8:1],5/4,
{8},,8,8,7/1,8,8/2,1,
{8}1/7,6,1/7,5,1/7,4,1/7,3h[4:1],
{8},4,5,6,3,3,2,1h[8:1],
{32}8bx,7x,6x,5x,{8}4x,{8}8hx[16:3],{16},{8}1hx[16:3],{16},{8}2,2,2,
{16}3,4,3,,8,,8,,6,5,6,,1,,,,
{8}8/2,3,8/2,4,8/2,5,8/2,6h[4:1],
{8},5,4,3,6,6,7,8h[8:1],
{32}1bx,2x,3x,4x,{8}5x,{8}1hx[16:3],{16},{8}8hx[16:3],{16},{8}7,7,7,
{16}6,5,6,,2,,8,1,,7,2,,6-2[8:1],,,,
{1}6b-1-4-7-2-6b[4:6],,
{8}2,3,6,5,{16}3,4,3,4,3,,{8}5,2/6,7,8,2,{16}8,1,8,1,8-4[8:1],,,,
{1}8bpp5b[4:3],
{8}4,,3/6h[8:3],{16},{8}4,{16},{8}4,6/3,,
{8}4/5,,6/3h[8:3],{16},{8}5,{16},{8}5,1,3/6,
{8}1x,,1x,{16},{8}1x/6,{16},{8}2x/7,3x^8[8:1]/8^5[8:1],,
{8},,8xq4[8:1],,8,6pp2[8:7],,6,
{8},,3,,4,,5h[4:1],,
{8}1,1,8,8^5[8:1],,2,1,8^3[8:1],
{8},6,7,8^5[8:1],,,2,3,4h[4:1],
{8},7-5[8:1],5-1[8:1],7,4h[8:3],,,
{8}8,8,2h[4:1],,1,8,7/2,2,
{8}6h[4:1],,3,3h[4:1],,6v4v6b[4:2],6,2v8[4:1],
{4}2,,{8},1-5[8:1],7-4[8:1],1>7b[4:1],
{8}7,,,8,8<2[4:1],,1,1,
{8}1>6[4:1],,8,7h[4:1],,4,3>7[8:1],3,
{8}6V82b[8:1],,3>7[8:1],,6V82b[8:1],,3>6[2:1],3,
{8},,5,5h[4:1],,7,8,1,
{8}1^3[8:1],,1/5,5^7[8:1],,5/3,2,1,
{8}1<6[4:1],,6^3[4:1],,3^8[4:1],,7,7,
{8}6h[4:1],,5h[4:1],,7h[8:1],4,4/7,8,
{4}3h[2:1]/8h[2:1],,{8},8-4[8:1],2-5[8:1],8<2b[4:1],
{8}2,,,1,1>7[4:1],,8qq8pp8[8:5],8,
{8}8,,,,,,3>7[8:1],3,
{8}6V82b[8:1],,3>7[8:1],,6V82b[8:1],,3>6[2:1],3,
{8},,,,,,2,3,
{8}4^1[8:1],,6,5,4^7[8:1],,1,1p4[8:1],
{8},8,7,6^1[8:1],,,2-4[8:1],2,
{8}2/1-5[8:1],,1/8-6[8:1],,8,,4>5b[4:3],4,
{1},
{8}4b/7b,,8,{16}5-1[8:1],6,5,6,5,,{8}7^4[8:1],1,
{8}7bx/2b,,2,{16}4-8[8:1],3,4,3,4,,{8}2^5[8:1],,
{8}7b/2bx,,6,{16}1-5[8:1],8,1,8,1,,{8}8-5[8:1]*-6[8:1],,
{4}8b-3[8:1]*-2[8:1],8b-5[8:1]*-6[8:1],8b-3[8:1]*-2[8:1],8b,
{8}6/4,5,4,{16}2,2h[8:1],,7,7h[8:1],,{8}1,1,
{8}1/8,7,2,{16}7,1,,8,2,8,{8}2,8/2,
{8}7,6,3,2,{16}8,8,8,8,{4}8-4b[8:1],
{4}1b-5b[8:1],2b-6b[8:1],3bw7b[8:1],3b,
{8},,8^5[8:1],,8,3qq7[8:7],,3,
{8},,6,,5,,4h[4:1],,
{8}8,8,1,1^4[8:1],,7,8,1^6[8:1],
{8},3,2,1^4[8:1],,,7,6,5h[4:1],
{8},2^4[8:1],4p8[8:1],2,5,,6,
{8}1,1,7h[4:1],,8,1,2/7,7,
{8}3h[4:1],,6,6h[4:1],,3,5,4,
{1}4>5[4:2],
{2}C/B8,C/B1,
{2}C/B2,C/B3,
{4}C/E4,E5,E6,,
{4}C/E8,E1,E2,,
{4}C/D2,D3,D4,D5,
{4}C/D6,D7,D8,D1,
{4}C/B1,B3,B5,B7,
{16}1x,1x,1x,1x,1x,1x,1x,1x,1bxw5[8:1],,,,,,,,
{8}3>6b[4:1],,,5,5<3b[4:1],,4qq4pp4b[8:5],4,
{8}4,,,,,,7<3[8:1],7,
{8}2V46b[8:1],,7<3[8:1],,2V46b[8:1],,7<2[2:1],7,
{8},,,,,,1,2,
{8}3^8[8:1],,5,4,3^6[8:1],,8,8q4[8:1],
{8},7,6,5^8[8:1],,,1-3[8:1],1,
{8}1/8-4[8:1],,8/7-5[8:1],,7,,4>5[4:3],4,
{1},
{1}4>5b[4:2],
{16}4,5,4,5,4,5,4,5,4,5,4,5,4b,,,,
{8}46,7,46,8,{16}2-5[8:1],1,,1,2,,{8}7,
{8}53,2,53,1,{16}7-4[8:1],8,,8,7,,{8}2,
{8}3-8[8:1],2,7-4[8:1],6,3-8[8:1],2,7,6,
{16}5,1,5,1,6,2,6,2,7,3,7,3,8,4,8,,
{8}38,6,38,5,{16}3^8[8:1],4,2,4,3,,{8}5,
{8}61,3,61,4,{16}6^1[8:1],5,7,5,6,,{8}3,
{8}2-6[8:1],1,7-3[8:1],8,2-6[8:1],1,7,8,
{16}4,7,1,6,3,8,2,5,4,8,3,7,2,6,1,5,
{1}B1/B2/B3/B4/B5/B6/B7/B8/E3/E7/A3/A2/A6/A7/Cf,
E
