&title=Blessed Rain
&artist=ぺのれり
&first=-1.19
&des=CHUNITHM Chart Team
&lv_5=14
&inote_5=(204){1},
{16}
,,,,,,,,,,,,,,,,
7x<1[4:11]/1x,,,,,,,,,,,,,,,,
,,,,,,,,,,,,,,,,
,,,,,,,,,,,,,,,,
B7,,,,E2,,,,B5,,,,B3,,,,
B8/E8,,,,,,,,1h[4:1],,,,8,,2,,
6h[4:1],,,,4h[8:3],,,,,,6,,7,,8,,
1xV35-7[4:11],,7,,6,,,,,,,,,,,,
,,,,,,,,,,,,,,,,
,,,,,,,,,,,,,,,,
B2,,,,E8,,,,B4,,,,B6,,,,
B1/E2,,,,,,,,8h[4:1],,,,1,,7,,
3h[4:1],,,,5h[8:3],,,,,,1,,5,,6,,
1xpp5[4:4]/7xh[4:5],,,,,,,,,,,,,,,,
,,,,,,,,7xpp4[4:4]/4x,,,,,,,,
,,4,,3h[16:1],,3h[16:1],,2h[16:1],,2h[16:1],,1h[16:1],,1h[16:1],,
8x>3[8:3]/5x,,,,6,,,,7,,,,8<5[8:3],,,,
1,,,,2,,,,3>8[8:3],,,,6,,,,
5,,,,4<7[8:3],,,,8,,,,1,,,,
2xp6[16:5]/8xh[8:11],,,,,,,,,,,,4xh[8:5],,,,
,,,,,,,,(216)7/4,,6,5,6,,2/5,,
3,4,3h[8:1],,{32}D1,D8,D7,D6,D5,D4,D3,D2,
E1,E8,E7,E6,E5,E4,E3,E2,E1,,,,,,,,{16}3x,,3,,4/2-8[8:1],,,,
7-3[8:1],,,,1,,1-5[8:1],,,,1-3[8:1]/5,,,,7,,
8-4[8:1],,,,8/2,,,,2,,2,,3-5[8:1]/1,,,,
8-4[8:1],,,,2,,1-3[8:1],,,,1-5[8:1]/5,,,,6,,
7<4[8:1],,,,8/7,,,,1,,1,,8-4[8:1]/2,,,,
3-1[8:1],,,,7,,7-5[8:1],,,,7-3[8:1]/3,,,,1,,
8>3[8:1],,,,8/4,,,,5,,5,,4-2[8:1]/6,,,,
8-6[8:1],,,,1,,1-3[8:1],,,,1-5[8:1]/5,,,,6,,
7<4[8:1],,,,7/8,,,,
{12}3x,4,2,5,4,6,4,5,3,6,5,7,
1x,2,3,7,6,5,2,3,4,6,5,4,
2x,1,3,8,1,7,1,8,2,7,8,6,
2x,3,4,8,7,6,3,4,5,7,6,5,
1x/4xh[4:1],,,2,3,4,1,2,3,8,1,2,
3xh[4:1]/7x,,,7,6,5,8,7,6,1,8,7,
6x/1x,2,3,7,6,5,2,3,4,8,7,6,
{16}3x/5x,2,1,8,7x,6,5,4,{24}1x/3x,8,7,6x,5,4,3x,2,1,8x,7,6,
(208){16}5xb/Cf,,,,,,,,,,,,,,,,
,,,,,,,,B6,,,,,,,,
B2/E3,,,,,,,,,,,,,,,,
,,,,,,,,B4,,,,,,,,
E8/B8,,,,,,,,,,,,,,,,
E2/B2,,,,,,,,,,,,B5,,B3,,
E7/B7,,,,,,,,,,,,B4,,B6,,
B2/E3,,,,,,,,C,,,,,,,,
4xqq8[4:6],,,,,,,,,,,,,,,,
,,,,,,,,7,,,,,,,,
6xpp4[4:6],,,,,,,,,,,,,,,,
,,,,,,,,3,,,,,,,,
1x>6[4:3],,,,,,,,,,,,,,,,
8x<3[4:3],,,,,,,,,,,,,,,,
1xq5[4:2],,,,,,,,,,,,8,,7,,
{12}4x/6x,3,2,4x,5,6,3x,2,1,5x,6,7,
(216){12}
3b,3,7,5xb,5,7,1xbh[4:1],,,6b,6,2,
4xb,4,2,8xhb[4:1],,,2x,2,8,1xh[4:1],,,
6b,6,2,4xb,4,2,8xbh[4:1],,,3b,3,7,
5xb,5,7,1xhb[4:1],,,7x,7,1,8xh[4:1],,,
3b,3,5,7xb,7,5,1xbh[4:1],,,6b,6,4,
2xb,2,4,8xhb[4:1],,,3x,3,4,2xh[4:1],,,
6b,6,4,2xb,2,4,8xbh[4:1],,,3b,3,5,
7xb,7,5,1xhb[4:1],,,6x,6,5,7x,,,
{16}4xh[4:1]/8x,,,,,,3h[4:1]/5h[4:1],,,,,,2qq6[4:4]/6xh[4:3],,,,
,,,,,,,,,,,,,,,,
8xh[4:1],,,,,,7h[4:1]/1h[4:1],,,,,,6qq4<8[4:4]/2xh[4:1],,,,
,,,,,,8,,1,,1,,2,,2,,
3xh[4:1],,,,,,2h[4:1]/4h[4:1],,,,,,1xh[4:2]/5p8[8:3],,,,
,,,,,,2,,{12}7x,6,5,1,2,3,
{12}4x/7x,,,4x,5,3,5x,4,6,4x,5,3,
6x,5,7,3x,4,2,7x,8,6,2x,1,3,
{16}4xh[4:4]/8xh[4:2],,,,,,,,,,,,,,,,
8qq5[16:9]*pp3[16:9],,,,,,,,,,,,,,,,
{24}2xb-5[8:1]/5xb,,,,,,2/5,6,7,8x-4[8:1],,,,,,4/8,3,2,1x-5b[8:1],,,,,,
{16}1x/7xh[4:1],,,,,,3,,4/5,,6,,7<4[8:1],,8,,
7xb,,1-5[8:1],,6,,1xb,,8-4[8:1],,3,,8xb,,2>5[8:1],,
6,,2xb,,7,,8,,1w5[8:1]/5,,,,1x,,,,
{24}7b-4[8:1]/3b,,,,,,7/4,3,2,1x-5[8:1],,,,,,5/1,6,7,8x-4b[8:1],,,,,,
{16}8x/2xh[4:1],,,,,,7,,6/4,,3,,2-6[8:1],,1,,
2xb,,8-4[8:1],,3,,8xb,,1-5[8:1],,6,,1xb,,,,
4/6h[4:1],,,,,,3,,2/4,,5,,6,,7,,
{12}2x/8x,3,4,8,7,6,1x/5x,2,3,7x/4x,6,5,
4x/8xh[12:1],5,6,7x/1x,2,3,4x/7x,6,5,4/3,2,1,
7x/8x,6,5,1,2,3,8x/4x,7,6,2x/5x,3,4,
5x/1xh[12:1],4,3,2x/8x,7,6,5x/1x,2,3,4/5,6,7,
{16}8x/2xV48[4:1],,,,2/7,,5<8[16:3],,,,1,,2,,3,,
4x/7xV51[4:1],,,,7/2,,4>1[16:3],,,,8,,7,,6,,
1x-3[8:1]/5x-1[8:1],,,,1/5,,,,8x-6[8:1]/4x-8[8:1],,,,8x/4,,,,
1b/5x,,3,,4x/8b,,6,,3b,5,3,5,2b,4,2,4,
{24}1b>4[8:1],,,,,,1/5,6,7,8x-4[8:1],,,,,,4/8,3,2,1x<6b[8:1],,,,,,
{16}1x/5xh[4:1],,,,,,4,,3/5,,6,,7-4[8:1],,8,,
7xb,,1-6[8:1],,5,,1xb,,4-7[8:1],,3,,4xb,,2-5[8:1],,
8,,2xb,,7,,8,,1w5[8:1]/5,,,,1x,,,,
{24}8b<5[8:1],,,,,,8/4,3,2,1x-5[8:1],,,,,,5/1,6,7,8x>3b[8:1],,,,,,
{16}8x/4xh[4:1],,,,,,5,,3/7,,8,,1,,2,,
3b-8b[8:1]/7x,,,,3/1,,6b-1b[8:1],,,,6/8,,3bV57[8:3]*V17[8:3],,,,
,,,,,,,,C,,,,,,,,
{12}1x/7x,2,3,4/7,6,5,4/3,2,1,8/7,6,5,
4x/2x,3,4,5/1,8,7,6/5,4,3,2x/6x,5,4,
7x,6,5,8x,7,6,1x,8,7,2x,1,8,
{16}7x-5[8:1]/5x-1[8:1],,,,7x/5x,,,,2x,8,2,8,3,7,3,7,
4xb,5,4,5,4,5,3b,5,4b,5,4,5,2b,5,4b,5,
4,5,{24}1xb,8,7,6,5,4,3,2,1,8,7,6,5,4,3,2,1,8,7,6,5,
{16}4xh[4:4]/8xbh[4:2],,,,,,,,,,,,,,,,
8xw4[8:4],,,,,,,,,,,,,,,,
2xq6[8:1]/6x,,,,7,,8p4[8:1],,,,2,,1-5[8:1],,,,
1<6[8:1],,,,4>1[8:1],,,,4x<7[16:3],,,,8x,,1,,
2>5[8:1],,,,2/6,,,,8-4[8:1],,,,8/3,,,,
1xq5[8:1]/5x,,,,6,,7p3[8:1],,,,2,,1>4[8:1],,,,
1/6,,,,5/7,,,,4x/8xp4[8:1],,,,3,,2q6[8:1],,
,,6,,7xh[4:1],,,,2x,8,2,8,1x,7,1,7,
8b-4[8:1],,8,,7-5[8:1],,7,,1-3[8:1],,1,,8-6[8:1],,8,,
2-4[8:1],,2,,1-5[8:1],,1,,3>8[8:1],,3,,7,,6,,
5,,4,,1x,,2,,3/7,,6,4,6,4,6,,
1b/5x,,2,4,3,,8x/4b,,7,5,6,,1/5,,4,,
4/8,,6,,5-1[8:1]/2-5[8:1],,,,2x/5x,,,,4/7,,6,,
3,7,3,7,2,8,2,8,1x,1,1,1,1x,1,1,1,
(210)1xb>5qq3[4:8]*<5pp7[4:8],,,,,,,,,,,,,,,,
,,,,,,,,,,,,,,,,
,,,,,,,,3,,,,4,,,,
5>2pp4[4:4]*<8qq6[4:4],,,,,,,,,,,,,,,,
,,,,,,,,1xh[8:8],,,,,,,,
,,,,,,,,7,,3,,5,,1xw5[4:16],,
,,,,,,,,,,,,,,,,
,,,,,,,,,,,,,,,,
,,,,,,,,,,,,,,,,
,,,,,,,,,,,,,,,,
&inote_6=
