&title=ヒロシゲ36号 ~ Neo Super-Express
&artist=ZUN
&first=0.03999933
&des=ASD
&des_5=ASD
&lv_5=14
&inote_5=(143){4},,{2}8V63b[2:13],
,,,,,,,,,,,,,{8}4,
{16}4,5,{8}4,5,
4h[8:1],3,4,5,4h[8:1],3,4,5,
4h[8:1],3,4,5,{32}4x/B5,B6,B7,B8,{8}B1,2,3,
{4}4<8[4:1],8>4[4:1],{2}4<8[4:1],
{4}5>1[4:1],1<5[4:1],{2}5>1[4:1],
{4}6,7,{32}8,1,{16},{8}3,4,5,
{4}6V82[4:1],2V46[4:1],6<3[4:1],{8}4,5,
{4}8>4[4:1],4<8[4:1],{2}8>4[4:1],
{4}1<5[4:1],5>1[4:1],1<5[4:1],5,
4,{8}2,3,8,1,7,6,
{4}5h[2:1],{2},{32}B1,B2,B3,B4,B5,B6,B7,B8,
{4}1x-4[8:1],A1/B7,1-6[8:1],A1/B3,
5-2[8:1],A5/B7,5-8[8:1],A5/B3,
3,2,{32}1,8,{16},{8}6,5,4,
{4}3-7[8:1],3/5-1[8:1],5/2-6[8:1],{8}2,1,
{4}8<5[8:1],A8/B2,8>3[8:1],A8/B6,
4<7[8:1],A4/B2,4>1[8:1],A4/B6,
5/3,{8}6,5,4/6,7,1/8,2,
{2}3h[2:1],{8}1,2,3,4,
5/3h[4:1],B2,8h[4:1],B6,2h[4:1],B1,7h[4:1],B5,
1h[4:1],B4,6h[4:1],B7,3h[4:1],B2,8h[4:1],B5,
{4}6,7,{32}8,1,{16}2,{8}4,5,6,
{4}8<5[8:1],8>3[8:1],8-4[8:1],{8}8,1,
2h[4:1],E1/B1,7h[4:1],B6/E6,4h[4:1],E3/B2,6h[4:1],E8/B7,
3h[4:1],B4/E5,8h[4:1],E7/B6,1h[4:1],B2/B3,6h[4:1],E1/B8,
{4}1,{8}6,7,4/6,5,3/4,2,
{4}1h[4:3],{2},{4}8b,
{16}1,2,3,4,5,6,7,8,E2,B2,B3,E4,E8,B7,B6,E6,
4,3,2,1,8,7,6,5,E4,B3,B2,E2,E6,B6,B7,E8,
4,3,2,1,8,7,6,5,8,7,1,6,2,5,3,4,
5,6,4,7,3,8,2,1,8,7,1,6,2,5,3,4,
1bx,2,3,4,5,6,7,8,2bx,3,4,5,6,7,8,1,
3bx,4,5,6,7,8,1,2,4bx,5,6,7,8,1,2,3,
5bx,6,7,8,1,2,3,4,6bx,7,8,1,2,3,4,5,
7bx,8,1,2,3,4,5,6,2/7,1,8,7,6,5,4,3,
5,6,7,8,1,2,3,4,B3,B2,B1,B8,B7,B6,B5,B4,
6,7,8,1,2,3,4,5,B2,B1,B8,B7,B6,B5,B4,B3,
7,8,1,2,3,4,5,6,4,5,4,5,4,5,4,5,
4,6,4,7,4,8,4,1,4,2,4,3,4,5,4,6,
1bx,2,3,4,B6,B7,B8,B1,3bx,4,5,6,B8,B1,B2,B3,
5bx,6,7,8,B2,B3,B4,B5,7bx,8,1,2,B5,B6,B7,B8,
2bx,3,4,5,B7,B8,B1,B2,4bx,5,6,7,B1,B2,B3,B4,
5bx,6,7,8,1,2,3,4,5/1,8,7,6,5,4,3,2,
{1}1/C,
{4},,,,,,,,,,,C,
{8}3h[8:1],5h[8:1],C,4h[8:1],2h[8:1],3h[8:1],C,1h[8:1],
2h[8:1],4h[8:1],C,2h[8:1],3h[8:1],4h[8:1],C,5h[8:1],
3h[8:1],4h[8:1],C,6h[8:1],5h[8:1],4h[8:1],C,6h[8:1],
7h[8:1],5h[8:1],C,6h[8:1],8h[8:1],7h[8:1],C,6h[8:1],
{4}5,C,{8}5,4,{4}C,
2,C,{8}4,3,{4}C,
5,C,{8}5,6,{4}C,
{8}6,7,{4}C,,5/C,
4,B4,{8}4,5,{4}B5,
7,B7,{8}5,6,{4}B6,
4,B4,{8}4,3,{4}B3,
{8}3,2,{4}B2,,4/C,
5/3>8[4:1],B2/B1,{8}7h[8:1],6,{4}B6,
1/7<4[4:1],B6/B5,{8}3h[8:1],2,{4}B2,
1p3[4:1],C,{8}6h[8:1],7,{4}B7,
{8}1h[8:1],8,{4}B8/B1,,5/C,
{16}4bx,3,2,1,{4}B8,{16}8bx,7,6,5,{4}B4,
{16}3bx,2,1,8,{4}B7,{16}7bx,6,5,4,{4}B3,
{16}2bx,1,8,7,{4}B6,{16}6bx,5,4,3,{4}B2,
{16}8bx,7,6,5,4/C,3,2,1,8,7,6,5,4/C,3,2,1,
{1},(101){2},
(126){32}5,4,{16},{8}3,2,1,
{4}8h[4:1],6h[4:1],{2}4h[8:1],
{4}3h[4:1],5h[4:1],{2}7h[8:1],
{4}8h[4:1],2h[4:1],{32}4,5,{16},{8}6,7,8,
{4}1h[4:1],3h[4:1],5h[4:1],{8}8,7,
(128){4}6h[4:1],4h[4:1],{2}2h[#0.9375],
(133){4}1h[4:1],7h[4:1],5,4,
(136)2/4,{8}1,8,2/1,3,4,5,
(142){4}8h[2:1]/6h[2:1],{2},{32}B1,B2,B3,B4,B5,B6,B7,B8,
(143){4}1x>4[8:1],A1/C,5<8[8:1],C/A5,
1<6[8:1],A1/C,5>2[8:1],C/A5,
7,6,{32}5,4,{16},{8}2,1,8,
{4}7<4[8:1],7/2<7[8:1],2/5>2[8:1],{8}5,7,
{4}8-5[8:1],A8/B2,5-2[8:1],A5/B7,
2-7[8:1],A2/B5,7-4[8:1],A7/B2,
1/3,{8}8,7,5/6,7,8/1,2,
{2}3h[2:1],{8}8,7,6,5,
3-7[8:1],B2,8-4[8:1],B6,2-6[8:1],E4,7-3[8:1],E7,
1-5[8:1],B2,6-2[8:1],E6,4-8[8:1],B3,7,B7,
{4}2,3,{32}4,5,{16}6,{8}8,1,2,
{4}4>1[8:1],4<7[8:1],4-8[8:1],{8}4,5,
2>5[8:1],E1/B1,7-3[8:1],B6/E6,4-8[8:1],E3/B2,6<1[8:1],E8/B7,
3-7[8:1],E2/B1,8-4[8:1],E7/B6,1>4[8:1],B2/B3,6,B4/E5,
{4}1/7,{8}2,3,8/2,1,7/8,6,
{2}5h[2:1],{8}4,3,2,1,
{16}5,6,7,8,1,2,3,4,5/A8,A7,A6,A5,A4,A3,A2,A1,
4,3,2,1,8,7,6,5,4/A1,A2,A3,A4,A5,A6,A7,A8,
5,6,7,8,1,2,3,4,2,1,3,8,4,7,5,6,
7,5,8,4,1,3,2,1,3,8,4,7,5,6,4,5,
3bx,2,1,8,7,6,5,4,7bx,6,5,4,3,2,1,8,
6bx,7,8,1,2,3,4,5,2bx,3,4,5,6,7,8,1,
4bx,3,2,1,8,7,6,5,8bx,7,6,5,4,3,2,1,
5bx,6,7,8,1,2,3,4,1,2,3,4,5,6,7,8,
4,3,2,1,8,7,6,5,7,8,6,1,5,2,4,3,
5,6,7,8,1,2,3,4,2,1,3,8,4,7,5,6,
4,3,2,1,8,7,6,5,8,7,1,6,2,5,1,4,
8,5,1,6,2,7,3,8,4,7,3,6,2,5,1,4,
2bx,1,8,7,B1,B8,B7,B6,4bx,3,2,1,B3,B2,B1,B8,
6bx,5,4,3,B5,B4,B3,B2,8bx,7,6,5,B7,B6,B5,B4,
2bx,1,8,7,B1,B8,B7,B6,4bx,3,2,1,B3,B2,B1,B8,
6bx,5,4,3,2,1,8,7,2x/6x,3,4,5,6,7,8,1,
{1}2,
(150){8},{16}B1,B2,B3,B4,B5,B6,B7,B8,B1,B2,B3,B4,B5,B6,
B7,B8,,B1,B2,B3,B4,B5,B6,B7,B8,B1,B2,B3,B4,B5,
B6,B7,{8}B8,{4},{16}B7/B6/E7,{8},{16}B5/B4/E5,{8},B2/B3/E3,
