&title=ハッピーエンド
&artist=technoplanet feat. Kuroto Sion
&first=0
&des=he clear
&lv_5=14
&inote_5=(267)
{1},,,
{16},,,,,,,,,,,,1,,8,,
{16}2b-6[16:20]/7,,,,,,,,,,,,,,,,
{16}5s1[16:39],,,,,,,,,,,,,,,,
{16}5z1[16:21],,,,,,,,,,,,,,,,
{16},,,,,,,,,,,,,,,,
{16}7h[4:4]/3,,,,3h[4:1],,,,,,,,,,,,
{16},,4,,6/4h[2:1],,,,8h[4:1],,,,,,,,
{16}27,,1,,8,,27,,,,4,,5,,3,,
{16}6,,6,,1,,1,,7h[4:1],,,,5,,,,
{16}2b/8b,,,,3,,3h[4:1],,,,4,,4h[4:1],,,,
{16}2,,4,,3,,4,,2,,,,8,,,,
{16}17,,,,6,,6h[4:1],,,,5,,5h[4:1],,,,
{16}6,7,8,,3,,3,,1,,,,84,,,,
{16}3-5[8:1]/7,,,,6,,6-8[8:1],,,,2,,2-5[8:1],,,,
{16}6,,6-1[8:1],,,,4,,4-8[8:1],,,,8,,,,
{16}1/7q1[8:5],,,,,,,,,,,,,,,,
{24}2b,3,,,,,6b,5,,,,,1b,2,,,,,7b,6,,,,,
{16}1b>8[2:5],,,,,,,,,,,,,,,,
{16},,,,,,,,8,,,,,,1,,
{16},,,,2q7[8:10],,,,,,,,,,,,
{16},,,,1,,,,,,,,,,,,,,,,
{12}8h[4:1],,,4,3,2,6,,,,,,
{12}1h[4:1],,,5,6,7,3,,,,,,
{12}7h[4:1],,,5,4,3,6,,,,,,
{12}2h[2:1],,,1,,,1,8,7,36,,,
{12}1h[4:1],,,5,6,7,3,,,4,,,
{12}7h[4:1],,,5,4,3,6,,,5,,,
{12}2h[4:1],,,4,5,6,3,,,4,,,
{12}8h[4:1],,,6,,,6,5,4,7,6,5,
{16}1h[8:3]/4,,,,,,3h[8:3],,,,,,4,,,,
{16}6,,5,,5qq5[32:17],,,,7h[384:1],,,,7h[384:1],,,,
{16}8h[8:3],,,,,,6h[8:3],,,,,,5,,,,
{16}3,,4,,4pp3[32:19],,,,2h[384:1],,,,2h[384:1],,,,
{16}1,,,,2-6[16:3],,8,,8,,,,7,,,,
{16}7-3[8:1],,1,,1,,,,28,,,,46,,,,
{12}3/7qq1[16:27],,,1,2,3,4,,,8,1,2,
{12}3,,,1,2,3,4,,,2,3,4,
{16}5h[1:1],,,,4,,,,6,,,,2,,,,
{16}8b-4[16:3],,,,1,,1,,1,,,,26,,,,
{16}2bpp3[8:3],,,,5^8[16:3],,,,,,,,
{16}1pp2[8:3],,,,7^4[16:3],,,,,,,,
{16}1-5[16:3],,,,5-1[16:3],,,,6,,,,
{16}7,,7,,1,,6,,2,,5,,
{16}3qq2[8:3],,,,5^8[16:3],,,,,,,,
{16}3pp4[8:3],,,,8^5[16:3],,,,,,,,
{16}2-6[16:3],,,,6-2[16:3],,,,8,,,,
{16}7,,7,,4,,5,,2,,2,,
{16}7qq6[8:3],,,,1^4[16:3],,,,,,,,
{16}8qq7[8:3],,,,3^6[16:3],,,,,,,,
{16}8q4[32:7],,,,4q8[32:7],,,,3,,,,
{16}1-5[16:3],,,,7,,,,8h[4:1],,,,
{16}5,,5,,6,,4,,5,,3,,
{16}4,,4,,2,,5,,3,,6,,
{12}4h[4:1],,,7,6,5,4pp5[16:7],3,2,
{16}1b,,,,,,,,,,,,
{16}1/8,,,,2^5[16:3],,1,,2,,,,
{16}8-4[16:3],,,,8/4,,,,2,,,,
{16}7/8,,,,6^1[16:3],,5,,6,,,,
{16}2-6[8:1],,,,7-3[8:1],,,,,,,,
{16}8/1,,,,7^4[16:3],,8,,7,,,,
{16}1-5[16:3],,,,5/1,,,,7,,,,
{16}2/1,,,,2^7[4:1],,,,7^4[4:1],,,,
{16}4^1[4:1],,,,1pp8[16:8],,,,8,,,,
{16}6b,,,,5h[4:1],,,,1h[4:1],,,,
{12}4,5,6,2,1,8,7,6,5,
{12}48,7,6,5,4,3,{8}1,1,
{16}4-7[8:1],,,,2-5[8:1],,,,,,,,
{16}7b/1,,,,6,,6,,5,,,,
{16}2b/8,,,,3,,3,,4,,,,
{24}5,6,7,8h[8:5],,,,,,,,,5,,,,,,
{24}5,4,3,2h[8:5],,,,,,,,,6,,,,,,
{24}6bpp5[4:11],3/7,4p3[16:32]/8,15,,,,,,,,,,,,,,,
{16},,,,,,,,,,,,
{16},,,,,,,,,,,,
{16},,,,,,,,,,,,
{16}1qq4[4:9],,,,,,,,,,,,
{16},,,,,,,,,,,,
{16}5,,,,,,,,,,,,
{16}7,,,,,,,,6,,,,
{16}2pp5[16:23],,,,,,,,,,,,
{16}1,,,,,,,,,,,,
{16}1pp5[16:23],,,,,,,,,,,,
{16}8,,,,,,,,,,,,
{16}8pp5[16:23],,,,,,,,,,,,
{16}7,,,,,,,,,,,,
{16}7pp5[4:5]*pp8[64:49],,,,,,,,,,,,
{16},,,,,,,,,,,,
{16}1h[4:1],,,,4h[4:1],,,,3,,,,
{16}6/5h[8:4],,,,,,,,7,,7,,
{16}6h[4:1],,,,8h[4:1],,,,2,,,,
{16}3/4h[2:1],,,,,,,,2h[4:1],,,,
{16}3h[4:1],,,,1h[4:1],,,,7,,,,
{16}4/6h[2:1],,,,,,,,2,,2,,
{16}8h[4:1],,,,5h[4:1],,,,6,,,,
{16}3/4h[2:1],,,,,,,,2,,,,
{16}6h[2:1]/5,,,,4,,,,4,,,,
{16}3h[4:1]/4,,,,5,,3,,5,,,,
{16}7h[4:1]/5,,,,4,,,,74,,,,
{16}2h[8:2]/4,,,,5,,2,,5,,,,
{16}7/4,,,,2/5,,,,1/8,,,,
{16}2/5,,,,7/4,,,,1/8,,,,
{16}7/5h[384:1],,,,2h[384:1]/4,,,,8h[384:1]/1,,,,
{16}2/4h[384:1],,,,5/7h[384:1],,,,8/1h[384:1],,,,
{16}7b`6h[384:1],,,,3b`2h[384:1],,,,1b`8h[384:1],,,,
{16}2b`3h[384:1],,,,6b`7h[384:1],,,,8b`1h[384:1],,,,
{16}6bp4[8:16]`3b>7[16:23],,,,,,,,,,,,
{16},,,,,,,,,,,,
{16},,,,,,,,,,,,
{16}1-5[32:5],,,,,,,,,,,,
{16}3b/7bqq4[4:4],,,,,,,,{12}3,2,1,
{16}8h[8:1],,,,1h[8:1],,,,2h[8:1],,,,
{16}3h[8:1],,5,,3h[8:1],,6,,3h[8:1],,7,,
{16}4h[8:1],,7,,5h[8:1],,7,,6h[8:1],,7,,
{12}1^4[16:3],,,5,6,7,8,,,
{12}7^4[16:3],,,3,2,1,8-3[8:1],,,
{16}5b-8[8:1],,,,2b-5[8:1],,,,1b,,,,
{16}1,8,7,6,4-8[8:1],3,2,1,,,,,
{16}2bV46[16:5],,,,7-1[8:1],,,,,,,,
{16}5V31[16:5],,,,7-5[8:1],,,,,,,,
{16}8V24[16:5],,,,6-8[8:1],,,,,,,,
{16}5V31[16:5],,,,8V64[16:5],,,,,,,,
{16}2-6[16:3],,,,5-1[16:3],,,,,,,,
{16}4^1[16:3],,,,7^4[16:3],,,,,,,,
{16}2^7[16:3],,,,6,,6,,6h[4:1],,,,
{16}8,1,2,3,5-1[8:1],6,7,8,,,,,
{16}7b,,,,2^5[16:3],,6,,2,,,,
{12}7,8,1,6,7,8,1,2,3,
{16}4/6,,,,6^1[16:3],,2,,6,,,,
{12}3,4,5,2,3,4,53,62,71,
{16}8b^5[8:1],,,,8b^3[8:1],,,,8b,,,,
{12}6,5,6,3,4,3,8,1,8,
{16}2bq3[4:3]/7bp6[4:3],,,,,,,,,,,,
{16},,,,,,,,,,,,
{12}2,3,4,5,6,7,8,1,5,
{12}4,3,2,1,8,7,6,5,4bqq5[8:11],
{16}1b>7[8:16],,,,,,,,,,,,
{16},,,,,,,,,,,,
{16},,,,,,,,,,,,
{16}2,,,,1V35[4:5],,,,8<2[4:8],,,,
{16},,,,,,,,,,,,
(240)
{16},,,,,,,,,,,,
(252)
{16}1b,,,,,,1,,,,,,1^4[4:3],,,,
{16}8,,,,,,,,7,,,,7,,,,
{16}6h[8:2],,,,5,,7h[8:2],,,,5,,8^5[4:3],,,,
{16}5,,,,4,,,,3,,,,2,,,,
(246)
{16}3h[4:1],,,,8,,2,,,,5,,3,,,,
(230)
{16}6,,5,,7,,5,,6,,,,1,,,,
{48}1s5[35.6#384:189],,,,,,,2,,,,,,,,3,,,,,,,,4,,,,,,,,,,,6,,,,,,,,,,,7,,,
{48},,,,,,,,,8,,,,,,,,,,,,,,,,,,,,1bz5[16:47],,,,,,,,,,,,,,,,,,,
{16},,,,,,,,,,,,,,,,
E
