&title=ワンダー・リブレット
&artist=榊原ゆい/PCゲーム「ガールズ・ブック・メイカー -幸せのリブレット-」OPテーマ
&first=2.02
&des=Ragna
&wholebpm=92
&demo_seek=56.6
&demo_len=34.5
&des_5=Ragna
&lv_5=13
&inote_5=(92){4}3<2[16:7],,,7<8[16:7],,,
{8}3<2[16:7],4,5,6,,,7<8[16:7],6,5,1b<3[8:3],1b,,,,,
{16}
2h[8:1]/8h[8:1],,,8h[8:1]/6h[8:1],,,45,,45,,
6h[8:1]/8h[8:1],,,1h[8:1]/2h[8:1],,,34,,34,,
2h[8:1]/8h[8:1],,,8h[8:1]/7h[8:1],,,65,,65,,
4q5[4:1]/5,,,,,,,,,,
6h[8:1]/4h[8:1],,,6h[8:1]/8h[8:1],,,18,,18,,
7h[8:1]/5h[8:1],,,4h[8:1]/3h[8:1],,,12,,12,,
3h[8:1]/5h[8:1],,,6h[8:1]/5h[8:1],,,78,,78,,
{8}1b/8b<1[16:5],,,,,,
1pp4[8:3],,,4>6[8:3],,,6pp3[8:3],,,,,,
8qq5[8:3],,,5<3[8:3],,,3qq5[32:11]*qq4[32:11],,,,,,
1pp6[8:3],,,6>8[8:3],,,8pp4[8:3],,,,,,
8qq3[8:3],,,3<1[8:3],,,1qq5[32:11]*qq4[32:11],,,,,,
1pp4[8:3],,,4>6[8:3],,,6pp1[8:3],,,1<3[8:3],,,
3pp6[8:3],,,6>8[8:3],,,8pp3[32:11]*pp5[32:11],,,,,,
8qq3[8:3],,,3<1[8:3],,,1qq4[8:3],,,4<2[8:3],,,
2qq5[8:3],,,5<3[8:3],,,3qq6[8:3],,,6<4[8:3],,,
4qq6[32:11]*qq8[32:11],,,,,,
1pp5[8:3],,,5>7[8:3],,,7pp3[32:11]*pp5[32:11],,,,,,
36,2qq4[8:2]/7pp5[8:2],18,27,,,36,2qq5[8:2]/7pp4[8:2],18,2b/7b,,,
8qq4[8:3],,,4<2[8:3],,,2qq6[32:11]*qq4[32:11],,,,,,
36,2q5[4:1]/7p4[4:1],18,27,,,1q4[8:3],,,4<2[8:3],,,2bq4[8:3],,,,6,7,
8p5[8:3],,,,3,2,1q3[8:3],,,3<1[8:3],,,1q4[8:3],,,,6,7,
{16}8^5[16:3],,,5pp8[16:5],,,4,,3,,2,,1^4[16:3],,,4qq1[16:5],,,{8}5,6,7,8p5[16:5]*pp4[16:5],,,,,,2b/7b,,,,,,
{16}1h[8:1]/8h[8:1],,,3h[8:1]/5h[8:1],,,87,,87,,
3h[8:1]/4h[8:1],,,2h[8:1]/8h[8:1],,,56,,56,,
1h[16:3]/8,,,{32}4,2,{16}5,3,7,5,6,2,4,18,27,36,45,36,1b/8b,E
