&title=Deep Blue
&artist=technoplanet feat. Tamako Kinoshita
&first=-1.97
&des=Valkyrie
&lv_5=14+
&inote_5=(236)
{8},,,,,,,,
,,,,,,,,
{16}7b/2b,,,,7b/2b,,,,1,8,1,8,1b,,,,
2b,,2,,8,,8,,1,,1,,7,,7,,
3,,3,,8,,8,,2V48[4:1],,,,2/8,,,,
6b,,6,,1,,1,,7,,7,,2,,2,,
8,,8,,3,,3,,7<5-1[4:1],,,,7/1,,,,
2b,,,,8,,8,,1,,1,,7,,7,,
2,,2,,8,,8,,1>4[8:1]/1?<6[8:1],,,,1,,,,
3x,4,3h[8:1],,,,6x,5,6h[8:1],,,,4x,5,4,5,
4bh[4:1],,,,,,,,3,4,2,5,1,6,8,7,
8b-2-4-6-8[1:1],,,,,,,,,,,,,,,,
5hx[2:1],,,,,,,,,,,,6x/2x,,,,
8x,7,8,7,1,6,1,6,8x,1,2,3,7,6,5,4,
2x,1,2,1,3,8,3,8,2x,3,4,5,1,8,7,6,
5bV71<5[1:1]/1bV35>1[1:1],,
,,,,,,,,,,,,,,
,,,,
,,,,2x/8x,,,,3x/7x,,,,
2-5[8:1],,,,2,,8-4[8:1],,,,8,,1V35[4:1],,,,
6h[8:1],,,,7h[8:1],,,,8h[8:1]/3h[8:1],,,,1h[8:1]/2h[8:1],,,,
8b/3b,,,,1-5[8:1],,1,,7-4[8:1],,7,,2-5[8:1],,2,,
8-4[8:1],,8,,1-5[8:1],,1,,7-3[8:1],,7,,2,,2,,
{32}1b/2b,3x,4x,5x,,,,,,,,,,,,,7b/8b,6x,5x,4x,,,,,,,,,,,,,
{16}2b-6[8:1],,,,7,,8,,1w5[8:1],,,,1b,,,,
8b,,,,2-6[8:1],,2,,8-4[8:1],,8,,1-5[8:1],,1,,
7<4-8[4:1],,,,7/3,,2,,1-5b[8:1],,,,1x,,,,
{32}8b,7x,6x,5hx[8:1],,,,,,,,,7b,6x,5x,4hx[8:1],,,,,,,,,1b,2x,3x,4hx[8:1],,,,,
,,,,2b,3x,4x,5hx[8:1],,,,,,,,,{16}7b/3b,,,,1b-5[8:1]/5b,,,,
{48}1b-3-5-7-1b[1:1],Cf,,,,,,,,,,,{16},,,,,,,,,,,,
,,,,,,,,3/4,,,,2/5,,,,
6hx[2:1]/3,,,,,,4,,,,,,5/6,,,,
,,3h[4:1]/4h[4:1],,,,,,2/5,,,3/4,,,,,
6b,,,,3,,3,,4,,,3h[16:3],,,,,
3/4,,,,6,,6,,5,,7h[4:1],,,,,,
7x/8b-4[8:1]/8?-3b[8:1],,,,,,,,1b-5[8:1]/1?-6b[8:1]/2x,,,,,,,,
7bw3b[8:1]/8x,,,,,,,,1x/2bw6b[8:1],,,,,,,,
8b/4b>5b[1:1],,,,,,,,,,,,,,,,
,,,,,,,,4,5,3,6,2,7,1,8,
2b-5[8:1],,1,,2,,8-4[8:1],,1,,8>3[4:1],,,,3<6[4:1],,
,,6<1[4:1],,,,1-5[8:1]/1?-4[8:1],,,,,,,,6x,,
7b-4[8:1],,8,,7,,1-5[8:1],,8,,1,,7,,6>3[8:1],,
,,6/2,,,,1-4[8:1]/1?-6[8:1],,,,1b,,,,,,
2b/5b,,3,4,3,4,2,5,1-6[8:1],,6,,1x,,7-3[8:1],,
5,,7x,,4,,2,,3,,1,,2b,,,,
{48}2,3x,4x,,,,,,,8,7x,6x,,,,,,,1,,,,,,7,6x,5x,,,,,,,1,2x,3x,,,,,,,8,,,,,,
{16}3hb[8:1],,,8,2h[8:1],,,7,1h[8:1],,,6,2h[8:1],,,7,
2,8,2,8,3,7,3,7,1,8,1,8,2,7,2,7,
2>5[8:1],,,1,2,,8,,7-4[8:1],,,8,7,,1,,
2-5V38[8:3],,,,8,,7,,6,,5,,4,,1b-6[8:1]/1?-4[8:1],,
,,,,,,,,8bw4[8:1],,,,,,,,
3bx/5bx,,,,{12}4,4,4,{16}3x/5x,,,,6b/2b,,,,
4b/6b,,,,{12}5,5,5,{16}6x/4x,,,,7b/3b,,,,
5b/4,,4,,6/3b,,6,,2/7b,,2,,8/1b,,8,,
2-5[8:1],,1,,2,,7-4[8:1],,8,,7,,1w5b[8:1],,,,
1b,,,,,,,,E2,E3,E4,E5,E6,E7,E8,,
,,,,,,,,A1,A2,A3,A4,A5,A6,A7,,
,,,,,,,,1,2,3,4,5,6,7,,
{12}6x,8,7,3x,1,2,6x,5,7,3x,4,2,
{16}5x,,,,5x,,,,5hx[4:1]/E1,E8,E7,E6,E5,E4,E3,,
5x,,,,5x,,,,5hx[4:1]/A8,A7,A6,,A4,A3,A2,,
5x,,,,5x,,,,5hx[4:1]/8,7,6,,4,3,2,,
7x/8x,,7/8,,6x/1x,,6/1,,2x/5x,,2/5,,3x/4x,,3/4,,
{32}3x,4,5,6,7,8,1,2,3,4,5,6,7,8,1,2,{16}3b-8[8:1]/7b,,,,3/7-4[8:1],,,,
7/2-5[8:1],,,,2/6-1[8:1],,,,6/2>5[8:1],,,,2,,1,,
,,7x/4x,,5/6,,,,{12}3,4,3,6,5,6,
3,4,2,6,5,7,{16}2-5[8:1],,,,2/8-4[8:1],,,,
8/1-5[8:1],,,,1/7,,,,8-4[8:1]/8?-6[8:1],,,,8,,,,
3,4,3,4,2w6[8:1],,,,2>1[2:1]/2?<3[2:1],,,,,,,,
,,,,,,,,{12}2x,8,8,1x,7,7,
3x,8,8,4x,7,7,3x,4,2,6x,5,7,
3x,1,2,6x,8,7,{16}6x/2x,,,,1b,8,1,8,
1,8,1,8,1,8,1,8,1,8,1,8,2x,3,4,5,
8x,7,6,5,1x,2,3,4,7x,6,5,4,2,1,2,1,
2b-5[8:1],,2,,1-6[8:1],,1,,3-8[8:1],,3,,7-4[8:1],,7,,
1,,2,,4x,3,4,,6-1[8:1],,5-2[8:1],,6,,5,,
8,,8,,2,1,3,8,4,7,5,6,4,5,3,4,
2-5[8:1],,1-6[8:1],,2,,1,,4,5,4,5,4b,,,,
7-4[8:1],,8,,7,,1-5[8:1],,8,,1,,8-4[8:1],,1,,
8,,2>5-1[8:3],,,,5,,6,,7,,8,,7,,
2,1,2,1,2h[8:1],,,,7,8,7,8,7h[8:1],,8,,
1hbx[4:1],,,,,,,,2b-5[8:1]/6b-1[8:1],,,,2x/6x,,,,
8h[8:1],,4h[8:1],,7h[8:1],,3h[8:1],,6,,,5/7,,,6/4,,
5x-7[8:1]/3x-5[8:1],,,,3/5>8[8:3],,,,8,,7,,6,,5,,
{24}1x,2,3,7x,6,5,2x,3,4,8x,7,6,1x,2,3,7x,6,5,2x,3,4,8x,7,6,
2x,3,4,5x,6,7,2x,3,4,5x,6,7,{16}1hbx[4:1],,,,8,,2/7,,
1x,8,1,8,2,7,2,7,1x,2,3,4,8x,7,6,5,
2x,1,2,1,3,8,3,8,2x,3,4,5,1x,8,7,6,
5b/3b,,,,{12}4h,4h,4h,4h,4h,4h,{16}4h[4:1],,,,
5bw1[8:1],,,,,,,,4bw8b[8:1],,,,,,,,
2x<3[4:3]/Ch[1:1],,,,,,,,,,,,,,,,
,,,,8x/2x,,,,1,1,1,1,1,1,1,1,
{32}8bx,B8,C,B4,A4,,,,2bx,B2,C,B6,A6,,,,7bx,B7,C,B3,A3,,,,1bx,B1,C,B5,A5,,,,
8bx,B8,C,B4,A4,,,,2bx,B2,C,B6,A6,,,,
7bx,6x,5x,4x,3x,2x,1x,8x,{64}7x`A3,D4/E4,A4,D5/E5,A5,D6/E6,A6,D7/E7,A7,D8/E8,A8,D1/E1,A1,E2/D2,A2,E3/D3,
{16}A3f,,,,,,,,,,,,,,,,,,,,,,,,,,,,,,,,,,,,,,,,,,,,,,,,,,,,,,,,,,,,,,,,
5h[2:1],,,,4,,4,,,,3,,3,,,,
4h[2:1],,,,6,,6,,5,,,,3,,,,
5h[4:1],,,,4,,4,,6h[4:1],,,,5,,,,
3,,4,,5,,6,,3,,4,,5,,6,,
3hx[4:3],,,,,,,,,,,,4,,4,,
3,,,,2/5,,,,3/6,,,,4/7,,,,
8hx[2:1],,,,4,,,,{12}E4,E3,E2,E8,E7,E6,
{16}5hx[2:1],,,,,,,,3,,,,3,,,,
6,,,,4,,4,,5,,,,3,,5,,
3,,,,6,,6,,4,,,,5,,,,
2/4,,,,3/5,,,,4/6,,,,5/7,,,,
8bpp7[2:1]/4bpp3[2:1],,,,,,,,,,,,,,,,
2b-5[8:1]/1b,,,,2,,1,,,,7b/8b<5[8:1],,,,8>3[8:1],,
,,8-4b[8:1],,,,8x,,,,2b/6b,,,,,,
7b<4[8:1],,8,,7,,1-5[8:1],,8,,1,,,,3b-8[8:1]/7b-4[8:1],,
,,3/7,,,,1-4b[8:1]/1?-6b[8:1],,,,1b,,,,,,
7b/3b,,,,2-5[8:1],,8-4[8:1],,2,,8,,1,,2/6,,
7-4[8:1],,8-3[8:1],,7,,8,,5,,6/4,,7/3,,,,
{48}2b,3x,4x,,,,,,,8b,7x,6x,,,,,,,1b,,,,,,7b,6x,5x,,,,,,,1b,2x,3x,,,,,,,8b,,,,,,
{16}7hb[8:1]/5hb[8:1],,,2hb[8:1]/4hb[8:1],,,1b/8b,,2hb[8:1]/4hb[8:1],,,7hb[8:1]/5hb[8:1],,,1b/8b,,
2b-5b[8:1]/7b-4b[8:1],,,,{48}2b/7b,C/B5/B4/E5,,,,,,,,,,,{16}3,6,3,6,2,7,2,7,
3,4,3,4,2,5,2,5,1,8,1,8,2,7,2,7,
2-5[8:1],,1,,2,,8-4b[8:1],,1,,8,,2,,2,,
5h[8:1],,2h[8:1],,6h[8:1],,3h[8:1],,7hbx[16:7],,,,,,,1x,
,,,8,8,8,8,8,,,,1x/7x,,,,,
3x/5x,,,,4,4,4,4,4,,,,3x/5x,,,,
4b/5b,,4/5,,3b/6b,,3/6,,2b/7b,,2/7,,1b/8b,,1/8,,
1hbx[2:1],,,,,,,,8b,,,,,,,,
{32}1b/8bpp7[4:10],2/7,3/6,4pp3b[32:77]/5,,,,,{16},,,,,,,,,,,,
,,,,,,,,,,,,,,,,
,,,,,,,,,,,,,,,,
{32}7bx,B7,C,B3,A3f,,,,2bx,B2,C,B6,A6f,,,,8bx,B8,C,B4,A4f,,,,1bx,B1,C,B5,A5f,,,,
{16}6-1[8:1],,6,,5-2[8:1],,5,,8,7,6,5,1,2,3,4,
7-4[8:1],,7,,8-3[8:1],,8,,5,6,7,8,4,3,2,1,
7-3[8:1],,7,,1-5[8:1],,1,,4,5,6,7,4,3,2,1,
7-4[8:1],,7,,2-5[8:1],,2,,5,6,7,8,4,3,2,1,
7<4[8:1],,,8,7,,1,,2>5[8:1],,,1,2,,8,,
7h[8:1]/8hx[8:1],,,,1hx[8:1]/6h[8:1],,,,2,,4,3,4,,2/5,,
6hx[8:1],,5x,5,6,,3hx[8:1],,4x,4,3,,7hx[8:1],,5x,5,
6,,2hx[8:1],,4x,4,3,,7h[8:1],,8h[8:1],,6h[8:1],,1h[8:1],,
7-3b[8:1],,,,7b/8b,,,,1,8,1,8,2,7,2,7,
1-5[8:1],,7-4[8:1],,1,,7,,2,1,2,1,3,8,3,8,
2>5[8:1],,1,,2,,8-4[8:1],,1,,8,,3,,2/5,,
2h[8:1],,6h[8:1],,1h[8:1],,7h[8:1],,8-5[8:1]/8?-3[8:1],,,,8b,,,,
2-5[8:1],,1-6[8:1],,2,,1,,3-8[8:1],,3,,4-7[8:1],,4,,
1b-4[8:1],,,,1b/6b-3[8:1],,,,6b/8b-5[8:1]/8?-3[8:1],,,,8b,,,,
6hx[8:1],,4x,4,5,,3hx[8:1],,5x,5,4,,7hx[8:1],,4x,4,
5,,2hx[8:1],,5x,5,4,,5/6,,7/4,,3/8,,2/1,,
8hb[4:7]/2bp1<1b[4:6],,,,,,,,,,,,,,,,
,,,,,,,,,,,,,,,,
7b/8b,,,,6hb[2:1]/1hb[2:1],,,,,,,,,,,,
1b/2b,,,,8hb[2:1]/3hb[2:1],,,,,,,,,,,,
2,1,2,1,3,8,3,8,2,3,4,5,1,8,7,6,
1,8,1,8,2,7,2,7,1,2,3,4,8,7,6,5,
4h[8:1]/3h[8:1],,,,5/6,,5h[8:1]/6h[8:1],,,,2/4,,2h[8:1]/4h[8:1],,,,
5/7,,5h[4:1]/7h[8:1],,,,,,1/8,,2/7,,3/6,,4/5,,
5hb[4:3]/4<3b[2:1],,,,,,,,,,,,,,,,
{12}6b,6,6,5b,5,5,4b,4,4,3b,3,3,
{16}7b,6,5,4,1b,8,7,6,3b,2,1,8,5b,4,3,2,
7,1,7,1,6,2,6,2,8,7,6,5,8,1,2,3,
8,1,8,1,7,2,7,2,8,7,6,5,1,2,3,4,
1,2,1,2,8,3,8,3,1,8,7,6,1,2,3,4,
7b,5,6,5,7h[8:1],,2b,4,3,4,2h[8:1],,7b,8,6,8,
7h[8:1],,2b,1,3,1,2h[8:1],,1bx,,,,3bx/8bx,,,,
{32}2b/8hb[8:1],3,4,5,,,,,,,,,1hb[8:1]/7b,6,5,4,,,,,,,,,8hb[8:1]/1b,2,3,4,,,,,
,,,,1hb[8:1]/8b,7,6,5,,,,,,,,,{16}1b-5[8:1]/2b,,5bw1b[8:1]/6b,,1b,,{48}B5/Cf/B8/B1/B2/E1/E2,
